Поиск

(Jazz / Funk / Soul) Tower Of Power - Soul With A Capital "S" - 2002, FLAC (image+.cue), lossless

(Jazz / Funk / Soul) Tower Of Power - Soul With A Capital "S" - 2002, FLAC (image+.cue), lossless
Треклист:
Tower Of Power - Soul With A Capital "S"
Жанр: Jazz / Funk / Soul
Год выпуска диска: 2002
Производитель диска: England
Аудио кодек: FLAC
Тип рипа: image+.cue
Битрейт аудио: lossless
Продолжительность: 1:04:21
Трэклист:
1. Attitude Dance
2. Soul With A Capital 'S'
3. Souled Out
4. So I Got To Groove
5. Diggin' On James Brown
6. Funk The Dumb Stuff
7. I Love That Girl So Much (Previously Unreleased)
8. You Ought To Be Havin' Fun
9. And You Know It
10. Ain't Nothin' Stoppin' Us Now
11. We Came To Play
12. So Very Hard To Go (Live)
13. You're Still A Young Man (Live)
14. What Is Hip? (Live)
 
Log EAC
Exact Audio Copy V0.99 prebeta 5 from 4. May 2009
Отчёт EAC об извлечении, выполненном 17. марта 2010, 22:00
Tower Of Power / Tower Of Power Soul With A Capital "S" - The Best Of Tower Of Power
Дисковод: MATSHITAUJDA755 DVD/CDRW Adapter: 1 ID: 0
Режим чтения : Достоверность
Использование точного потока : Да
Отключение кэша аудио : Да
Использование указателей C2 : Нет
Коррекция смещения при чтении : 102
Способность читать области Lead-in и Lead-out : Нет
Заполнение пропущенных сэмплов тишиной : Да
Удаление блоков с тишиной в начале и конце : Нет
При вычислениях CRC использовались нулевые сэмплы : Да
Интерфейс : Встроенный Win32-интерфейс для Win NT/2000
Выходной формат : Пользовательский кодировщик
Выбранный битрейт : 768 kBit/s
Качество : Высокий
Добавление ID3-тэга : Нет
Утилита сжатия : C:\Program Files\Exact Audio Copy\FLAC\FLAC.EXE
Дополнительные параметры : -8 -V %s
TOC извлечённого CD
Трек | Старт | Длительность | Начальный сектор | Конечный сектор
---------------------------------------------------------------------
1 | 0:00.00 | 5:35.10 | 0 | 25134
2 | 5:35.10 | 4:56.55 | 25135 | 47389
3 | 10:31.65 | 3:47.42 | 47390 | 64456
4 | 14:19.32 | 5:39.50 | 64457 | 89931
5 | 19:59.07 | 4:39.03 | 89932 | 110859
6 | 24:38.10 | 5:27.10 | 110860 | 135394
7 | 30:05.20 | 5:06.55 | 135395 | 158399
8 | 35:12.00 | 3:06.30 | 158400 | 172379
9 | 38:18.30 | 3:00.30 | 172380 | 185909
10 | 41:18.60 | 3:55.57 | 185910 | 203591
11 | 45:14.42 | 3:31.70 | 203592 | 219486
12 | 48:46.37 | 3:51.13 | 219487 | 236824
13 | 52:37.50 | 5:45.55 | 236825 | 262754
14 | 58:23.30 | 5:57.50 | 262755 | 289579
Характеристики диапазона извлечения и сообщения об ошибках
Выбранный диапазон
Имя файла G:\FLACи\Tower Of Power - Soul With A Capital S\Tower Of Power - Tower Of Power Soul With A Capital S - The Best Of Tower Of Power.wav
Пиковый уровень 100.0 %
Качество диапазона 100.0 %
CRC теста FC136E8F
CRC копии FC136E8F
Копирование... OK
Ошибок не произошло
AccurateRip: сводка
Трек 1 точное извлечение (доверие 13) [BFB4C842]
Трек 2 точное извлечение (доверие 13) [D9A213DC]
Трек 3 точное извлечение (доверие 13) [874537C9]
Трек 4 точное извлечение (доверие 13) [D2995221]
Трек 5 точное извлечение (доверие 13) [E0331D11]
Трек 6 точное извлечение (доверие 13) [4528A84F]
Трек 7 точное извлечение (доверие 13) [02A1E91A]
Трек 8 точное извлечение (доверие 13) [6F338829]
Трек 9 точное извлечение (доверие 13) [AD673C4D]
Трек 10 точное извлечение (доверие 13) [7DED4789]
Трек 11 точное извлечение (доверие 13) [FA042EDD]
Трек 12 точное извлечение (доверие 13) [E3D9B910]
Трек 13 точное извлечение (доверие 13) [E7AE3214]
Трек 14 точное извлечение (доверие 12) [FD7694AD]
Все треки извлечены точно
Конец отчёта
Рип с собственного диска. Сканы 600 dpi
Приватный:
Нет (DHT включён)
Размер:
461.04 Мб (483,433,444 байт) » файлов: 8
Участники:
0 раздают, 0 качают (0 участников всего)
Внешние участники:
1 раздают, 0 качают (1 участников всего) [ Обновить ]
Никого нет на раздаче - пишите личное сообщение M0p94ok
No seeders - write personal message to M0p94ok
03:36
17
Нет комментариев. Ваш будет первым!