Поиск

(Funky-Soul) Curtis Mayfield — Back To The World (1973) - 2001, FLAC (image+.cue), lossless

(Funky-Soul) Curtis Mayfield — Back To The World (1973) - 2001, FLAC (image+.cue), lossless
Треклист:
Curtis Mayfield — Back To The World (1973)
Жанр: Funky-Soul
Год выпуска диска: 2001
Производитель диска: UK (Charly)
Аудио кодек: FLAC
Тип рипа: image+.cue
Битрейт аудио: lossless
Продолжительность: 35:43
Трэклист:
01. Back To The World 06:45
02. Future Shock 05:15
03. Right On For The Darkness 07:27
04. Future Song (Love A Good Woman, Love A Good Man) 04:58
05. If I Were Only A Child Again 02:49
06. Can't Say Nothin' 05:13
07. Keep On Trippin' 03:12
 
отчёт ЕАС
Exact Audio Copy V0.99 prebeta 4 from 23. January 2008
Отчёт EAC об извлечении, выполненном 21. марта 2010, 19:41
Curtis Mayfield / Back To The World
Дисковод: Optiarc DVD RW AD-7203S Adapter: 1 ID: 1
Режим чтения : Достоверность
Использование точного потока : Да
Отключение кэша аудио : Да
Использование указателей C2 : Нет
Коррекция смещения при чтении : 48
Способность читать области Lead-in и Lead-out : Нет
Заполнение пропущенных сэмплов тишиной : Да
Удаление блоков с тишиной в начале и конце : Нет
При вычислениях CRC использовались нулевые сэмплы : Да
Интерфейс : Встроенный Win32-интерфейс для Win NT/2000
Выходной формат : Пользовательский кодировщик
Выбранный битрейт : 1024 kBit/s
Качество : Высокий
Добавление ID3-тэга : Нет
Утилита сжатия : C:\Program Files\Exact Audio Copy\Flac\flac.exe
Дополнительные параметры : -V -8 -T "artist=%a" -T "title=%t" -T "album=%g" -T "date=%y" -T "tracknumber=%n" -T "genre=%m" %s
TOC извлечённого CD
Трек | Старт | Длительность | Начальный сектор | Конечный сектор
---------------------------------------------------------------------
1 | 0:00.00 | 6:45.61 | 0 | 30435
2 | 6:45.61 | 5:15.47 | 30436 | 54107
3 | 12:01.33 | 7:27.61 | 54108 | 87693
4 | 19:29.19 | 4:58.27 | 87694 | 110070
5 | 24:27.46 | 2:49.58 | 110071 | 122803
6 | 27:17.29 | 5:13.23 | 122804 | 146301
7 | 32:30.52 | 3:12.62 | 146302 | 160763
Характеристики диапазона извлечения и сообщения об ошибках
Выбранный диапазон
Имя файла D:\EAC-FOLDER\1973-Curtis Mayfield - Back To The World\1973-Curtis Mayfield - Back To The World\Curtis Mayfield - Back To The World.wav
Пиковый уровень 99.8 %
Качество диапазона 100.0 %
CRC теста B50BB4EA
CRC копии B50BB4EA
Копирование... OK
Ошибок не произошло
AccurateRip: сводка
Трек 1 точность не определена (достоверность 4) [126C1088], AccurateRip вернул [34702C50]
Трек 2 точность не определена (достоверность 4) [1263C1F0], AccurateRip вернул [35313A80]
Трек 3 точность не определена (достоверность 4) [B2F5AA1C], AccurateRip вернул [F1A7F894]
Трек 4 точность не определена (достоверность 4) [ABE11CF2], AccurateRip вернул [A2FB9082]
Трек 5 точность не определена (достоверность 4) [E4492124], AccurateRip вернул [BEE5B464]
Трек 6 точность не определена (достоверность 4) [852D5B4A], AccurateRip вернул [3A24D57A]
Трек 7 точность не определена (достоверность 3) [5E2CAFE8], AccurateRip вернул [00F0F79A]
Ни один трек не прошёл проверки на точность
В вашей базе может быть иной вариант штамповки диска
Конец отчёта
Доп. информация: Великий период Кёртиса.
Истории-зарисовки на улицах "поствьетнамской" Америки, полные горькой иронии, сарказма, где один Ад сменяется другим, рассказанные великим рассказчиком Кёртисом Мейфилдом в своей манере в приправе из упругого фанки-соула.
PS Рип свой, внутри сканы. Увы, диск с "хронической болезнью" от лейбла "Чарли". Похоже, опять-таки, потрошение винила:
 
Тау
Приватный:
Да (DHT отключён)
Размер:
190.10 Мб (199,332,050 байт) » файлов: 13
Участники:
0 раздают, 0 качают (0 участников всего)
Внешние участники:
2 раздают, 1 качают (3 участников всего) [ Обновить ]
Никого нет на раздаче - пишите личное сообщение M0p94ok
No seeders - write personal message to M0p94ok
03:37
17
Нет комментариев. Ваш будет первым!