Поиск

(funk) Ohio Players - Jass-Ay-Lay-Dee 1978 / 1994, FLAC (tracks+.cue), lossless

(funk) Ohio Players - Jass-Ay-Lay-Dee 1978 / 1994, FLAC (tracks+.cue), lossless
Треклист:
Ohio Players - Jass-Ay-Lay-Dee 1978
Жанр: funk
Год выпуска диска: 1994
Производитель диска: Mercury (USA)
Аудио кодек: FLAC
Тип рипа: tracks+.cue
Битрейт аудио: lossless
Продолжительность: 00 : 37 : 15
Трэклист:
1. Funk-O-Nots 4:54
2. Sleepwalkin' 5:32
3. Jass-Ay-Lay-Dee 8:13
4. Nott Enuff 5:01
5. Time Slips Away / Shoot Yer Shot 7:12
6. Dance (If Ya Wanta) 6:13
Доп. информация: рип сделан с оригинального cd из моей коллекции .
 
скрытый текст
Exact Audio Copy V0.99 prebeta 5 from 4. May 2009
Отчёт EAC об извлечении, выполненном 20. марта 2010, 19:55
Ohio Players / Jass-Ay-Lay-Dee
Дисковод: SONY DVD RW DRX-S70U Adapter: 2 ID: 0
Режим чтения : Достоверность
Использование точного потока : Да
Отключение кэша аудио : Да
Использование указателей C2 : Нет
Коррекция смещения при чтении : 48
Способность читать области Lead-in и Lead-out : Нет
Заполнение пропущенных сэмплов тишиной : Да
Удаление блоков с тишиной в начале и конце : Нет
При вычислениях CRC использовались нулевые сэмплы : Да
Интерфейс : Встроенный Win32-интерфейс для Win NT/2000
Обработка зазоров : Добавлено к предыдущему треку
Выходной формат : Пользовательский кодировщик
Выбранный битрейт : 768 kBit/s
Качество : Высокий
Добавление ID3-тэга : Нет
Утилита сжатия : C:\Program Files\Exact Audio Copy\FLAC\FLAC.EXE
Дополнительные параметры : -6 -V -T "ARTIST=%a" -T "TITLE=%t" -T "ALBUM=%g" -T "DATE=%y" -T "TRACKNUMBER=%n" -T "GENRE=%m" -T "COMMENT=%e" %s -o %d
TOC извлечённого CD
Трек | Старт | Длительность | Начальный сектор | Конечный сектор
---------------------------------------------------------------------
1 | 0:00.32 | 4:55.43 | 32 | 22199
2 | 4:56.00 | 5:33.62 | 22200 | 47236
3 | 10:29.62 | 8:15.18 | 47237 | 84379
4 | 18:45.05 | 5:02.40 | 84380 | 107069
5 | 23:47.45 | 7:14.20 | 107070 | 139639
6 | 31:01.65 | 6:14.02 | 139640 | 167691
Трек 1
Имя файла d:\My Documents\ohio players 1978\01.Ohio Players-Funk-O-Nots.wav
Длина предзазора 0:00:02.42
Пиковый уровень 100.0 %
Качество трека 100.0 %
CRC теста 498CA1AA
CRC копии 498CA1AA
Трек не обнаружен в базе AccurateRip
Копирование... OK
Трек 2
Имя файла d:\My Documents\ohio players 1978\02.Ohio Players-Sleepwalkin'.wav
Длина предзазора 0:00:01.44
Пиковый уровень 100.0 %
Качество трека 100.0 %
CRC теста 9762C0BD
CRC копии 9762C0BD
Трек не обнаружен в базе AccurateRip
Копирование... OK
Трек 3
Имя файла d:\My Documents\ohio players 1978\03.Ohio Players-Jass-Ay-Lay-Dee.wav
Длина предзазора 0:00:01.42
Пиковый уровень 100.0 %
Качество трека 100.0 %
CRC теста 5C0FCEE6
CRC копии 5C0FCEE6
Трек не обнаружен в базе AccurateRip
Копирование... OK
Трек 4
Имя файла d:\My Documents\ohio players 1978\04.Ohio Players-Nott Enuff.wav
Длина предзазора 0:00:01.98
Пиковый уровень 100.0 %
Качество трека 100.0 %
CRC теста 621B0C2D
CRC копии 621B0C2D
Трек не обнаружен в базе AccurateRip
Копирование... OK
Трек 5
Имя файла d:\My Documents\ohio players 1978\05.Ohio Players-Time Slips Away , Shoot Yer Shot.wav
Длина предзазора 0:00:01.50
Пиковый уровень 100.0 %
Качество трека 100.0 %
CRC теста 2D77ADFB
CRC копии 2D77ADFB
Трек не обнаружен в базе AccurateRip
Копирование... OK
Трек 6
Имя файла d:\My Documents\ohio players 1978\06.Ohio Players-Dance (If Ya Wanta).wav
Длина предзазора 0:00:01.53
Пиковый уровень 100.0 %
Качество трека 100.0 %
CRC теста F121C90E
CRC копии F121C90E
Трек не обнаружен в базе AccurateRip
Копирование... OK
Ни одного трека нет в базе AccurateRip
Ошибок не произошло
Конец отчёта
 
скрытый текст
AUDIOCHECKER v2.0 beta (build 457) - by Dester - opdester@freemail.hu
~~~~~~~~~~~~~~~~~~~~~~~~~~~~~~~~~~
-=== НЕ РЕДАКТИРУЙТЕ ЭТОТ ФАЙЛ! ===-
Путь: ...\ohio players 1978
1 -=- 01.Ohio Players-Funk-O-Nots.flac -=- CDDA (100%)
2 -=- 02.Ohio Players-Sleepwalkin'.flac -=- CDDA (100%)
3 -=- 03.Ohio Players-Jass-Ay-Lay-Dee.flac -=- CDDA (100%)
4 -=- 04.Ohio Players-Nott Enuff.flac -=- CDDA (100%)
5 -=- 05.Ohio Players-Time Slips Away , Shoot Yer Shot.flac -=- CDDA (100%)
6 -=- 06.Ohio Players-Dance (If Ya Wanta).flac -=- CDDA (100%)
Сводка 100,00% CDDA
184557732
 
скрытый текст
REM GENRE Funk
REM DATE 1978
REM DISCID 4C08BB06
REM COMMENT "ExactAudioCopy v0.99pb5"
PERFORMER "Ohio Players"
TITLE "Jass-Ay-Lay-Dee"
FILE "01.Ohio Players-Funk-O-Nots.wav" WAVE
TRACK 01 AUDIO
TITLE "Funk-O-Nots"
PERFORMER "Ohio Players"
PREGAP 00:00:32
INDEX 01 00:00:00
TRACK 02 AUDIO
TITLE "Sleepwalkin'"
PERFORMER "Ohio Players"
INDEX 00 04:54:10
FILE "02.Ohio Players-Sleepwalkin'.wav" WAVE
INDEX 01 00:00:00
TRACK 03 AUDIO
TITLE "Jass-Ay-Lay-Dee"
PERFORMER "Ohio Players"
INDEX 00 05:32:30
FILE "03.Ohio Players-Jass-Ay-Lay-Dee.wav" WAVE
INDEX 01 00:00:00
TRACK 04 AUDIO
TITLE "Nott Enuff"
PERFORMER "Ohio Players"
INDEX 00 08:13:19
FILE "04.Ohio Players-Nott Enuff.wav" WAVE
INDEX 01 00:00:00
TRACK 05 AUDIO
TITLE "Time Slips Away / Shoot Yer Shot"
PERFORMER "Ohio Players"
INDEX 00 05:01:02
FILE "05.Ohio Players-Time Slips Away , Shoot Yer Shot.wav" WAVE
INDEX 01 00:00:00
TRACK 06 AUDIO
TITLE "Dance (If Ya Wanta)"
PERFORMER "Ohio Players"
INDEX 00 07:12:55
FILE "06.Ohio Players-Dance (If Ya Wanta).wav" WAVE
INDEX 01 00:00:00
Приватный:
Нет (DHT включён)
Размер:
228.38 Мб (239,477,958 байт) » файлов: 10
Участники:
0 раздают, 0 качают (0 участников всего)
Внешние участники:
1 раздают, 0 качают (1 участников всего) [ Обновить ]
03:35
16
Нет комментариев. Ваш будет первым!