Поиск

(funk) Ohio Players - Contradiction - 1976 / 1991, FLAC (tracks+.cue), lossless

(funk) Ohio Players - Contradiction - 1976 / 1991, FLAC (tracks+.cue), lossless
Треклист:
Ohio Players - Contradiction - 1976
Жанр: funk
Год выпуска диска: 1991
Производитель диска: Mercury (USA)
Аудио кодек: FLAC
Тип рипа: tracks+.cue
Битрейт аудио: lossless
Продолжительность: 00 : 38 : 54
Трэклист:
1. Contradiction 4:36
2. Precious Love 4:55
3. Little Lady Maria 4:17
4. Far East Mississippi 4:54
5. Who'd She Coo? 4:31
6. My Life 3:58
7. Tell The Truth 3:39
8. My Ladies Run Me Crazy 3:54
9. Bi-Centennial 3:46
Доп. информация: рип сделан с оригинального cd из моей коллекции .
 
скрытый текст
Exact Audio Copy V0.99 prebeta 5 from 4. May 2009
Отчёт EAC об извлечении, выполненном 20. марта 2010, 17:18
Ohio Players / Contradiction
Дисковод: SONY DVD RW DRX-S70U Adapter: 2 ID: 0
Режим чтения : Достоверность
Использование точного потока : Да
Отключение кэша аудио : Да
Использование указателей C2 : Нет
Коррекция смещения при чтении : 48
Способность читать области Lead-in и Lead-out : Нет
Заполнение пропущенных сэмплов тишиной : Да
Удаление блоков с тишиной в начале и конце : Нет
При вычислениях CRC использовались нулевые сэмплы : Да
Интерфейс : Встроенный Win32-интерфейс для Win NT/2000
Обработка зазоров : Добавлено к предыдущему треку
Выходной формат : Пользовательский кодировщик
Выбранный битрейт : 768 kBit/s
Качество : Высокий
Добавление ID3-тэга : Нет
Утилита сжатия : C:\Program Files\Exact Audio Copy\FLAC\FLAC.EXE
Дополнительные параметры : -6 -V -T "ARTIST=%a" -T "TITLE=%t" -T "ALBUM=%g" -T "DATE=%y" -T "TRACKNUMBER=%n" -T "GENRE=%m" -T "COMMENT=%e" %s -o %d
TOC извлечённого CD
Трек | Старт | Длительность | Начальный сектор | Конечный сектор
---------------------------------------------------------------------
1 | 0:00.32 | 4:38.65 | 32 | 20946
2 | 4:39.22 | 4:58.13 | 20947 | 43309
3 | 9:37.35 | 4:18.55 | 43310 | 62714
4 | 13:56.15 | 4:56.50 | 62715 | 84964
5 | 18:52.65 | 4:33.70 | 84965 | 105509
6 | 23:26.60 | 4:00.10 | 105510 | 123519
7 | 27:26.70 | 3:43.32 | 123520 | 140276
8 | 31:10.27 | 3:57.63 | 140277 | 158114
9 | 35:08.15 | 3:46.05 | 158115 | 175069
Трек 1
Имя файла d:\My Documents\ohio players 1976\01.Ohio Players-Contradiction.wav
Длина предзазора 0:00:02.42
Пиковый уровень 98.7 %
Качество трека 100.0 %
CRC теста 9BBB0151
CRC копии 9BBB0151
Точное извлечение (достоверность 1) [7107C394]
Копирование... OK
Трек 2
Имя файла d:\My Documents\ohio players 1976\02.Ohio Players-Precious Love.wav
Длина предзазора 0:00:02.53
Пиковый уровень 98.7 %
Качество трека 99.9 %
CRC теста F77FE71F
CRC копии F77FE71F
Точное извлечение (достоверность 1) [5ABC4C3B]
Копирование... OK
Трек 3
Имя файла d:\My Documents\ohio players 1976\03.Ohio Players-Little Lady Maria.wav
Длина предзазора 0:00:02.53
Пиковый уровень 98.7 %
Качество трека 100.0 %
CRC теста 938A9C4E
CRC копии 938A9C4E
Точное извлечение (достоверность 1) [A3B34F1D]
Копирование... OK
Трек 4
Имя файла d:\My Documents\ohio players 1976\04.Ohio Players-Far East Mississippi.wav
Длина предзазора 0:00:01.70
Пиковый уровень 98.7 %
Качество трека 100.0 %
CRC теста D82E521B
CRC копии D82E521B
Точное извлечение (достоверность 1) [F87DF43E]
Копирование... OK
Трек 5
Имя файла d:\My Documents\ohio players 1976\05.Ohio Players-Who'd She Coo .wav
Длина предзазора 0:00:01.74
Пиковый уровень 98.7 %
Качество трека 99.9 %
CRC теста 4845374A
CRC копии 4845374A
Точное извлечение (достоверность 1) [4D8E428E]
Копирование... OK
Трек 6
Имя файла d:\My Documents\ohio players 1976\06.Ohio Players-My Life.wav
Длина предзазора 0:00:02.70
Пиковый уровень 98.7 %
Качество трека 100.0 %
CRC теста 71190399
CRC копии 71190399
Точное извлечение (достоверность 1) [AAA602E4]
Копирование... OK
Трек 7
Имя файла d:\My Documents\ohio players 1976\07.Ohio Players-Tell The Truth.wav
Длина предзазора 0:00:01.70
Пиковый уровень 98.7 %
Качество трека 100.0 %
CRC теста C35CCFA2
CRC копии C35CCFA2
Точное извлечение (достоверность 1) [DD57EF47]
Копирование... OK
Трек 8
Имя файла d:\My Documents\ohio players 1976\08.Ohio Players-My Ladies Run Me Crazy.wav
Длина предзазора 0:00:03.60
Пиковый уровень 98.7 %
Качество трека 100.0 %
CRC теста 38E627CB
CRC копии 38E627CB
Точное извлечение (достоверность 1) [68A77339]
Копирование... OK
Трек 9
Имя файла d:\My Documents\ohio players 1976\09.Ohio Players-Bi-Centennial.wav
Длина предзазора 0:00:03.37
Пиковый уровень 79.9 %
Качество трека 100.0 %
CRC теста 076E25D4
CRC копии 076E25D4
Точное извлечение (достоверность 1) [1E7D7A4A]
Копирование... OK
Все треки извлечены точно
Ошибок не произошло
Конец отчёта
 
скрытый текст
AUDIOCHECKER v2.0 beta (build 457) - by Dester - opdester@freemail.hu
~~~~~~~~~~~~~~~~~~~~~~~~~~~~~~~~~~
-=== DO NOT EDIT THIS FILE! ===-
Путь: ...\ohio players 1976
1 -=- 01.Ohio Players-Contradiction.flac -=- CDDA (100%)
2 -=- 02.Ohio Players-Precious Love.flac -=- CDDA (100%)
3 -=- 03.Ohio Players-Little Lady Maria.flac -=- CDDA (100%)
4 -=- 04.Ohio Players-Far East Mississippi.flac -=- CDDA (100%)
5 -=- 05.Ohio Players-Who'd She Coo .flac -=- CDDA (100%)
6 -=- 06.Ohio Players-My Life.flac -=- CDDA (100%)
7 -=- 07.Ohio Players-Tell The Truth.flac -=- CDDA (100%)
8 -=- 08.Ohio Players-My Ladies Run Me Crazy.flac -=- CDDA (100%)
9 -=- 09.Ohio Players-Bi-Centennial.flac -=- CDDA (100%)
Сводка 100,00% CDDA
67346148
 
скрытый текст
REM GENRE Funk
REM DATE 1976
REM DISCID 74091E09
REM COMMENT "ExactAudioCopy v0.99pb5"
PERFORMER "Ohio Players"
TITLE "Contradiction"
FILE "01.Ohio Players-Contradiction.wav" WAVE
TRACK 01 AUDIO
TITLE "Contradiction"
PERFORMER "Ohio Players"
PREGAP 00:00:32
INDEX 01 00:00:00
TRACK 02 AUDIO
TITLE "Precious Love"
PERFORMER "Ohio Players"
INDEX 00 04:36:25
FILE "02.Ohio Players-Precious Love.wav" WAVE
INDEX 01 00:00:00
TRACK 03 AUDIO
TITLE "Little Lady Maria"
PERFORMER "Ohio Players"
INDEX 00 04:55:48
FILE "03.Ohio Players-Little Lady Maria.wav" WAVE
INDEX 01 00:00:00
TRACK 04 AUDIO
TITLE "Far East Mississippi"
PERFORMER "Ohio Players"
INDEX 00 04:17:02
FILE "04.Ohio Players-Far East Mississippi.wav" WAVE
INDEX 01 00:00:00
TRACK 05 AUDIO
TITLE "Who'd She Coo?"
PERFORMER "Ohio Players"
INDEX 00 04:54:69
FILE "05.Ohio Players-Who'd She Coo .wav" WAVE
INDEX 01 00:00:00
TRACK 06 AUDIO
TITLE "My Life"
PERFORMER "Ohio Players"
INDEX 00 04:31:17
FILE "06.Ohio Players-My Life.wav" WAVE
INDEX 01 00:00:00
TRACK 07 AUDIO
TITLE "Tell The Truth"
PERFORMER "Ohio Players"
INDEX 00 03:58:32
FILE "07.Ohio Players-Tell The Truth.wav" WAVE
INDEX 01 00:00:00
TRACK 08 AUDIO
TITLE "My Ladies Run Me Crazy"
PERFORMER "Ohio Players"
INDEX 00 03:39:62
FILE "08.Ohio Players-My Ladies Run Me Crazy.wav" WAVE
INDEX 01 00:00:00
TRACK 09 AUDIO
TITLE "Bi-Centennial"
PERFORMER "Ohio Players"
INDEX 00 03:54:35
FILE "09.Ohio Players-Bi-Centennial.wav" WAVE
INDEX 01 00:00:00
Приватный:
Нет (DHT включён)
Размер:
237.39 Мб (248,922,134 байт) » файлов: 13
Участники:
0 раздают, 0 качают (0 участников всего)
Внешние участники:
1 раздают, 0 качают (1 участников всего) [ Обновить ]
Никого нет на раздаче - пишите личное сообщение M0p94ok
No seeders - write personal message to M0p94ok
03:35
18
Нет комментариев. Ваш будет первым!