Поиск

(Funk, Soul) Wilson Pickett - In The Midnight Hour (COL-CD-6335) (2003 remaster) - 1965, FLAC (tracks+.cue), lossless

(Funk, Soul) Wilson Pickett - In The Midnight Hour (COL-CD-6335) (2003 remaster) - 1965, FLAC (tracks+.cue), lossless
Треклист:
Wilson Pickett - In The Midnight Hour
Жанр: Funk, Soul
Год выпуска диска: 1965 (2003 remaster)
Производитель диска: Collectables
Аудио кодек: FLAC
Тип рипа: tracks+.cue
Битрейт аудио: lossless
Продолжительность: 00:30:26

1. Wilson Pickett - In The Midnight Hour (2:32)
2. Wilson Pickett - Teardrops Will Fall (2:32)
3. Wilson Pickett - Take A Little Love (2:21)
4. Wilson Pickett - For Better Or Worse (2:44)
5. Wilson Pickett - I Found A Love (2:59)
6. Wilson Pickett - That's A Man's Way (2:22)
7. Wilson Pickett - I'm Gonna Cry (2:19)
8. Wilson Pickett - Don't Fight It (2:34)
9. Wilson Pickett - Take This Love I've Got (2:13)
10. Wilson Pickett - Come Home Baby (2:35)
11. Wilson Pickett - I'm Not Tired (2:44)
12. Wilson Pickett - Let's Kiss And Make Up (2:31)

Собственноручный рип с оригинального диска от funky_cat!
 
Log EAC
Exact Audio Copy V0.99 prebeta 5 from 4. May 2009
EAC extraction logfile from 8. March 2010, 2:38
Wilson Pickett / In The Midnight Hour
Used drive : ASUS DRW-1608P2 Adapter: 0 ID: 0
Read mode : Secure
Utilize accurate stream : Yes
Defeat audio cache : Yes
Make use of C2 pointers : No
Read offset correction : 48
Overread into Lead-In and Lead-Out : No
Fill up missing offset samples with silence : Yes
Delete leading and trailing silent blocks : No
Null samples used in CRC calculations : Yes
Used interface : Native Win32 interface for Win NT & 2000
Gap handling : Appended to previous track
Used output format : User Defined Encoder
Selected bitrate : 320 kBit/s
Quality : High
Add ID3 tag : No
Command line compressor : C:\Program Files\FLAC\flac.exe
Additional command line options : -5 -V -T "ARTIST=%a" -T "TITLE=%t" -T "ALBUM=%g" -T "DATE=%y" -T "TRACKNUMBER=%n" -T "GENRE=%m" -T "COMMENT=Ripped By andygrakoff aka yetiisyou" %s
TOC of the extracted CD
Track | Start | Length | Start sector | End sector
---------------------------------------------------------
1 | 0:00.00 | 2:32.08 | 0 | 11407
2 | 2:32.08 | 2:32.12 | 11408 | 22819
3 | 5:04.20 | 2:21.37 | 22820 | 33431
4 | 7:25.57 | 2:44.74 | 33432 | 45805
5 | 10:10.56 | 2:59.27 | 45806 | 59257
6 | 13:10.08 | 2:22.58 | 59258 | 69965
7 | 15:32.66 | 2:19.19 | 69966 | 80409
8 | 17:52.10 | 2:34.29 | 80410 | 91988
9 | 20:26.39 | 2:13.41 | 91989 | 102004
10 | 22:40.05 | 2:35.18 | 102005 | 113647
11 | 25:15.23 | 2:44.36 | 113648 | 125983
12 | 27:59.59 | 2:31.74 | 125984 | 137382
Track 1
Filename E:\!Rips\FUNK @ SOUL\Wilson Pickett - In The Midnight Hour (1965) (COL-CD-6335) (2003)\01 – In The Midnight Hour.wav
Pre-gap length 0:00:02.00
Peak level 100.0 %
Track quality 99.9 %
Test CRC E2313372
Copy CRC E2313372
Accurately ripped (confidence 1) [2DDB08D0]
Copy OK
Track 2
Filename E:\!Rips\FUNK @ SOUL\Wilson Pickett - In The Midnight Hour (1965) (COL-CD-6335) (2003)\02 – Teardrops Will Fall.wav
Pre-gap length 0:00:02.00
Peak level 100.0 %
Track quality 100.0 %
Test CRC 24DF2C6F
Copy CRC 24DF2C6F
Accurately ripped (confidence 1) [61C36C2D]
Copy OK
Track 3
Filename E:\!Rips\FUNK @ SOUL\Wilson Pickett - In The Midnight Hour (1965) (COL-CD-6335) (2003)\03 – Take A Little Love.wav
Pre-gap length 0:00:02.01
Peak level 99.9 %
Track quality 100.0 %
Test CRC B7CA76E5
Copy CRC B7CA76E5
Accurately ripped (confidence 1) [2926C1D7]
Copy OK
Track 4
Filename E:\!Rips\FUNK @ SOUL\Wilson Pickett - In The Midnight Hour (1965) (COL-CD-6335) (2003)\04 – For Better Or Worse.wav
Pre-gap length 0:00:02.01
Peak level 100.0 %
Track quality 100.0 %
Test CRC 36D5A9BC
Copy CRC 36D5A9BC
Accurately ripped (confidence 1) [7E3A0D65]
Copy OK
Track 5
Filename E:\!Rips\FUNK @ SOUL\Wilson Pickett - In The Midnight Hour (1965) (COL-CD-6335) (2003)\05 – I Found A Love.wav
Pre-gap length 0:00:02.00
Peak level 95.6 %
Track quality 100.0 %
Test CRC 2393785E
Copy CRC 2393785E
Accurately ripped (confidence 1) [1720F567]
Copy OK
Track 6
Filename E:\!Rips\FUNK @ SOUL\Wilson Pickett - In The Midnight Hour (1965) (COL-CD-6335) (2003)\06 – That's A Man's Way.wav
Pre-gap length 0:00:02.00
Peak level 100.0 %
Track quality 99.9 %
Test CRC 67977949
Copy CRC 67977949
Accurately ripped (confidence 1) [E2A61B29]
Copy OK
Track 7
Filename E:\!Rips\FUNK @ SOUL\Wilson Pickett - In The Midnight Hour (1965) (COL-CD-6335) (2003)\07 – I'm Gonna Cry.wav
Pre-gap length 0:00:02.00
Peak level 100.0 %
Track quality 100.0 %
Test CRC 5599C0AF
Copy CRC 5599C0AF
Accurately ripped (confidence 1) [998E57C7]
Copy OK
Track 8
Filename E:\!Rips\FUNK @ SOUL\Wilson Pickett - In The Midnight Hour (1965) (COL-CD-6335) (2003)\08 – Don't Fight It.wav
Pre-gap length 0:00:02.00
Peak level 100.0 %
Track quality 99.9 %
Test CRC FE3337E8
Copy CRC FE3337E8
Accurately ripped (confidence 1) [BE189B90]
Copy OK
Track 9
Filename E:\!Rips\FUNK @ SOUL\Wilson Pickett - In The Midnight Hour (1965) (COL-CD-6335) (2003)\09 – Take This Love I've Got.wav
Pre-gap length 0:00:02.00
Peak level 99.5 %
Track quality 100.0 %
Test CRC 3D36F461
Copy CRC 3D36F461
Cannot be verified as accurate (confidence 1) [4DFEB6FD], AccurateRip returned [7DD0B6FD]
Copy OK
Track 10
Filename E:\!Rips\FUNK @ SOUL\Wilson Pickett - In The Midnight Hour (1965) (COL-CD-6335) (2003)\10 – Come Home Baby.wav
Pre-gap length 0:00:02.01
Peak level 99.8 %
Track quality 100.0 %
Test CRC 123CA70F
Copy CRC 123CA70F
Cannot be verified as accurate (confidence 1) [648CA4CD], AccurateRip returned [CACD914F]
Copy OK
Track 11
Filename E:\!Rips\FUNK @ SOUL\Wilson Pickett - In The Midnight Hour (1965) (COL-CD-6335) (2003)\11 – I'm Not Tired.wav
Pre-gap length 0:00:02.00
Peak level 100.0 %
Track quality 100.0 %
Test CRC 8CA508C7
Copy CRC 8CA508C7
Cannot be verified as accurate (confidence 1) [1923C4DE], AccurateRip returned [AF0FDE3E]
Copy OK
Track 12
Filename E:\!Rips\FUNK @ SOUL\Wilson Pickett - In The Midnight Hour (1965) (COL-CD-6335) (2003)\12 – Let's Kiss And Make Up.wav
Pre-gap length 0:00:02.01
Peak level 99.8 %
Track quality 100.0 %
Test CRC 4B14D2D1
Copy CRC 4B14D2D1
Cannot be verified as accurate (confidence 1) [F42573D7], AccurateRip returned [D352351C]
Copy OK
8 track(s) accurately ripped
4 track(s) could not be verified as accurate
Some tracks could not be verified as accurate
No errors occurred
End of status report
 
CUE
REM GENRE Soul
REM DATE 2003
REM DISCID 9207270C
REM COMMENT "ExactAudioCopy v0.99pb5"
PERFORMER "Wilson Pickett"
TITLE "In The Midnight Hour"
FILE "01 – In The Midnight Hour.wav" WAVE
TRACK 01 AUDIO
TITLE "In The Midnight Hour"
PERFORMER "Wilson Pickett"
INDEX 01 00:00:00
TRACK 02 AUDIO
TITLE "Teardrops Will Fall"
PERFORMER "Wilson Pickett"
INDEX 00 02:30:08
FILE "02 – Teardrops Will Fall.wav" WAVE
INDEX 01 00:00:00
TRACK 03 AUDIO
TITLE "Take A Little Love"
PERFORMER "Wilson Pickett"
INDEX 00 02:30:11
FILE "03 – Take A Little Love.wav" WAVE
INDEX 01 00:00:00
TRACK 04 AUDIO
TITLE "For Better Or Worse"
PERFORMER "Wilson Pickett"
INDEX 00 02:19:36
FILE "04 – For Better Or Worse.wav" WAVE
INDEX 01 00:00:00
TRACK 05 AUDIO
TITLE "I Found A Love"
PERFORMER "Wilson Pickett"
INDEX 00 02:42:74
FILE "05 – I Found A Love.wav" WAVE
INDEX 01 00:00:00
TRACK 06 AUDIO
TITLE "That's A Man's Way"
PERFORMER "Wilson Pickett"
INDEX 00 02:57:27
FILE "06 – That's A Man's Way.wav" WAVE
INDEX 01 00:00:00
TRACK 07 AUDIO
TITLE "I'm Gonna Cry"
PERFORMER "Wilson Pickett"
INDEX 00 02:20:58
FILE "07 – I'm Gonna Cry.wav" WAVE
INDEX 01 00:00:00
TRACK 08 AUDIO
TITLE "Don't Fight It"
PERFORMER "Wilson Pickett"
INDEX 00 02:17:19
FILE "08 – Don't Fight It.wav" WAVE
INDEX 01 00:00:00
TRACK 09 AUDIO
TITLE "Take This Love I've Got"
PERFORMER "Wilson Pickett"
INDEX 00 02:32:29
FILE "09 – Take This Love I've Got.wav" WAVE
INDEX 01 00:00:00
TRACK 10 AUDIO
TITLE "Come Home Baby"
PERFORMER "Wilson Pickett"
INDEX 00 02:11:40
FILE "10 – Come Home Baby.wav" WAVE
INDEX 01 00:00:00
TRACK 11 AUDIO
TITLE "I'm Not Tired"
PERFORMER "Wilson Pickett"
INDEX 00 02:33:18
FILE "11 – I'm Not Tired.wav" WAVE
INDEX 01 00:00:00
TRACK 12 AUDIO
TITLE "Let's Kiss And Make Up"
PERFORMER "Wilson Pickett"
INDEX 00 02:42:35
FILE "12 – Let's Kiss And Make Up.wav" WAVE
INDEX 01 00:00:00
Приватный:
Нет (DHT включён)
Размер:
139.92 Мб (146,719,253 байт) » файлов: 21
Участники:
0 раздают, 0 качают (0 участников всего)
Внешние участники:
3 раздают, 1 качают (4 участников всего) [ Обновить ]
Нет сидеров - пишите личное сообщение M0p94ok. Не нравятся торренты? Участники группы Pro-jazz Club могут заказать прямую ссылку на скачивание из облака.
No seeders - write a personal message to M0p94ok. Don't like torrents? Members of Pro-jazz Club group can order a direct download link from the cloud.
03:33
17
Нет комментариев. Ваш будет первым!