Поиск

(Funk, Soul) William Bootsy Collins - The One Giveth, The Count Taketh Away (7599-23667-2) - 1982, FLAC (tracks+.cue), lossless

(Funk, Soul) William Bootsy Collins - The One Giveth, The Count Taketh Away (7599-23667-2) - 1982, FLAC (tracks+.cue), lossless
Треклист:
William Bootsy Collins - The One Giveth, The Count Taketh Away
Жанр: Funk, Soul
Год выпуска диска: 1982
Производитель диска: Warner Bros. Records
Аудио кодек: FLAC
Тип рипа: tracks+.cue
Битрейт аудио: lossless
Продолжительность: 00:41:06
1. Shine-O-Myte (Rag Popping) (4:33)
2. Landshark (Just When You Thought...) (4:03)
3. Countracula (This One's For You) (3:14)
4. #1 Funkateer (3:26)
5. Excon (of Love) (5:23)
6. So Nice You Name Him Twice (3:50)
7. What's W-R-O-N-G Radio (4:04)
8. Music To Smile By (4:16)
9. Play On, Playboy (3:21)
10. Take A Lickin' and Keep On Kickin' (4:20)
11. The Funky Funktioneer (0:36)
Собственноручный рип с оригинального диска от funky_cat!
 
Log EAC
Exact Audio Copy V0.99 prebeta 5 from 4. May 2009
EAC extraction logfile from 6. March 2010, 17:03
William Bootsy Collins / The One Giveth, The Count Taketh Away
Used drive : ASUS DRW-1608P2 Adapter: 0 ID: 0
Read mode : Secure
Utilize accurate stream : Yes
Defeat audio cache : Yes
Make use of C2 pointers : No
Read offset correction : 48
Overread into Lead-In and Lead-Out : No
Fill up missing offset samples with silence : Yes
Delete leading and trailing silent blocks : No
Null samples used in CRC calculations : Yes
Used interface : Native Win32 interface for Win NT & 2000
Gap handling : Appended to previous track
Used output format : User Defined Encoder
Selected bitrate : 320 kBit/s
Quality : High
Add ID3 tag : No
Command line compressor : C:\Program Files\FLAC\flac.exe
Additional command line options : -5 -V -T "ARTIST=%a" -T "TITLE=%t" -T "ALBUM=%g" -T "DATE=%y" -T "TRACKNUMBER=%n" -T "GENRE=%m" -T "COMMENT=Ripped By andygrakoff aka yetiisyou" %s
TOC of the extracted CD
Track | Start | Length | Start sector | End sector
---------------------------------------------------------
1 | 0:00.00 | 4:33.05 | 0 | 20479
2 | 4:33.05 | 4:03.12 | 20480 | 38716
3 | 8:36.17 | 3:14.25 | 38717 | 53291
4 | 11:50.42 | 3:26.00 | 53292 | 68741
5 | 15:16.42 | 5:23.48 | 68742 | 93014
6 | 20:40.15 | 3:50.37 | 93015 | 110301
7 | 24:30.52 | 4:04.30 | 110302 | 128631
8 | 28:35.07 | 4:16.15 | 128632 | 147846
9 | 32:51.22 | 3:21.20 | 147847 | 162941
10 | 36:12.42 | 4:20.20 | 162942 | 182461
11 | 40:32.62 | 0:36.55 | 182462 | 185216
Track 1
Filename E:\!Rips\FUNK @ SOUL\William Bootsy Collins - The One Giveth, The Count Taketh Away (7599-23667-2)\01. William Bootsy Collins – Shine-O-Myte (Rag Popping).wav
Pre-gap length 0:00:02.00
Peak level 92.1 %
Track quality 100.0 %
Test CRC 6D9B4E77
Copy CRC 6D9B4E77
Track not present in AccurateRip database
Copy OK
Track 2
Filename E:\!Rips\FUNK @ SOUL\William Bootsy Collins - The One Giveth, The Count Taketh Away (7599-23667-2)\02. William Bootsy Collins – Landshark (Just When You Thought...).wav
Peak level 75.3 %
Track quality 100.0 %
Test CRC 4C8D149F
Copy CRC 4C8D149F
Track not present in AccurateRip database
Copy OK
Track 3
Filename E:\!Rips\FUNK @ SOUL\William Bootsy Collins - The One Giveth, The Count Taketh Away (7599-23667-2)\03. William Bootsy Collins – Countracula (This One's For You).wav
Peak level 100.0 %
Track quality 100.0 %
Test CRC 4A991D7A
Copy CRC 4A991D7A
Track not present in AccurateRip database
Copy OK
Track 4
Filename E:\!Rips\FUNK @ SOUL\William Bootsy Collins - The One Giveth, The Count Taketh Away (7599-23667-2)\04. William Bootsy Collins – #1 Funkateer.wav
Peak level 86.1 %
Track quality 100.0 %
Test CRC 91A97D1C
Copy CRC 91A97D1C
Track not present in AccurateRip database
Copy OK
Track 5
Filename E:\!Rips\FUNK @ SOUL\William Bootsy Collins - The One Giveth, The Count Taketh Away (7599-23667-2)\05. William Bootsy Collins – Excon (of Love).wav
Peak level 81.6 %
Track quality 100.0 %
Test CRC 9B54A01F
Copy CRC 9B54A01F
Track not present in AccurateRip database
Copy OK
Track 6
Filename E:\!Rips\FUNK @ SOUL\William Bootsy Collins - The One Giveth, The Count Taketh Away (7599-23667-2)\06. William Bootsy Collins – So Nice You Name Him Twice.wav
Peak level 96.6 %
Track quality 100.0 %
Test CRC D117AE96
Copy CRC D117AE96
Track not present in AccurateRip database
Copy OK
Track 7
Filename E:\!Rips\FUNK @ SOUL\William Bootsy Collins - The One Giveth, The Count Taketh Away (7599-23667-2)\07. William Bootsy Collins – What's W-R-O-N-G Radio.wav
Peak level 80.6 %
Track quality 99.9 %
Test CRC D80E305F
Copy CRC D80E305F
Track not present in AccurateRip database
Copy OK
Track 8
Filename E:\!Rips\FUNK @ SOUL\William Bootsy Collins - The One Giveth, The Count Taketh Away (7599-23667-2)\08. William Bootsy Collins – Music To Smile By.wav
Peak level 84.1 %
Track quality 100.0 %
Test CRC CDB8C8C9
Copy CRC CDB8C8C9
Track not present in AccurateRip database
Copy OK
Track 9
Filename E:\!Rips\FUNK @ SOUL\William Bootsy Collins - The One Giveth, The Count Taketh Away (7599-23667-2)\09. William Bootsy Collins – Play On, Playboy.wav
Peak level 78.4 %
Track quality 100.0 %
Test CRC 947CCCF7
Copy CRC 947CCCF7
Track not present in AccurateRip database
Copy OK
Track 10
Filename E:\!Rips\FUNK @ SOUL\William Bootsy Collins - The One Giveth, The Count Taketh Away (7599-23667-2)\10. William Bootsy Collins – Take A Lickin' and Keep On Kickin'.wav
Peak level 94.6 %
Track quality 100.0 %
Test CRC 4F40ED1B
Copy CRC 4F40ED1B
Track not present in AccurateRip database
Copy OK
Track 11
Filename E:\!Rips\FUNK @ SOUL\William Bootsy Collins - The One Giveth, The Count Taketh Away (7599-23667-2)\11. William Bootsy Collins – The Funky Funktioneer.wav
Pre-gap length 0:00:00.86
Peak level 70.7 %
Track quality 100.0 %
Test CRC CAE556C5
Copy CRC CAE556C5
Track not present in AccurateRip database
Copy OK
None of the tracks are present in the AccurateRip database
No errors occurred
End of status report
 
CUE
REM GENRE Funk
REM DATE 1982
REM DISCID 9009A50B
REM COMMENT "ExactAudioCopy v0.99pb5"
PERFORMER "William Bootsy Collins"
TITLE "The One Giveth, The Count Taketh Away"
FILE "01. William Bootsy Collins – Shine-O-Myte (Rag Popping).wav" WAVE
TRACK 01 AUDIO
TITLE "Shine-O-Myte (Rag Popping)"
PERFORMER "William Bootsy Collins"
INDEX 01 00:00:00
FILE "02. William Bootsy Collins – Landshark (Just When You Thought...).wav" WAVE
TRACK 02 AUDIO
TITLE "Landshark (Just When You Thought...)"
PERFORMER "William Bootsy Collins"
INDEX 01 00:00:00
FILE "03. William Bootsy Collins – Countracula (This One's For You).wav" WAVE
TRACK 03 AUDIO
TITLE "Countracula (This One's For You)"
PERFORMER "William Bootsy Collins"
INDEX 01 00:00:00
FILE "04. William Bootsy Collins – #1 Funkateer.wav" WAVE
TRACK 04 AUDIO
TITLE "#1 Funkateer"
PERFORMER "William Bootsy Collins"
INDEX 01 00:00:00
FILE "05. William Bootsy Collins – Excon (of Love).wav" WAVE
TRACK 05 AUDIO
TITLE "Excon (of Love)"
PERFORMER "William Bootsy Collins"
INDEX 01 00:00:00
FILE "06. William Bootsy Collins – So Nice You Name Him Twice.wav" WAVE
TRACK 06 AUDIO
TITLE "So Nice You Name Him Twice"
PERFORMER "William Bootsy Collins"
INDEX 01 00:00:00
FILE "07. William Bootsy Collins – What's W-R-O-N-G Radio.wav" WAVE
TRACK 07 AUDIO
TITLE "What's W-R-O-N-G Radio"
PERFORMER "William Bootsy Collins"
INDEX 01 00:00:00
FILE "08. William Bootsy Collins – Music To Smile By.wav" WAVE
TRACK 08 AUDIO
TITLE "Music To Smile By"
PERFORMER "William Bootsy Collins"
INDEX 01 00:00:00
FILE "09. William Bootsy Collins – Play On, Playboy.wav" WAVE
TRACK 09 AUDIO
TITLE "Play On, Playboy"
PERFORMER "William Bootsy Collins"
INDEX 01 00:00:00
FILE "10. William Bootsy Collins – Take A Lickin' and Keep On Kickin'.wav" WAVE
TRACK 10 AUDIO
TITLE "Take A Lickin' and Keep On Kickin'"
PERFORMER "William Bootsy Collins"
INDEX 01 00:00:00
TRACK 11 AUDIO
TITLE "The Funky Funktioneer"
PERFORMER "William Bootsy Collins"
INDEX 00 04:19:30
FILE "11. William Bootsy Collins – The Funky Funktioneer.wav" WAVE
INDEX 01 00:00:00
Приватный:
Нет (DHT включён)
Размер:
270.09 Мб (283,206,444 байт) » файлов: 23
Участники:
0 раздают, 0 качают (0 участников всего)
Внешние участники:
7 раздают, 2 качают (9 участников всего) [ Обновить ]
Нет сидеров - пишите личное сообщение M0p94ok. Не нравятся торренты? Участники группы Pro-jazz Club могут заказать прямую ссылку на скачивание из облака.
No seeders - write a personal message to M0p94ok. Don't like torrents? Members of Pro-jazz Club group can order a direct download link from the cloud.
03:33
20
Нет комментариев. Ваш будет первым!