Поиск

(Funk, Soul) The Undisputed truth - Face to face with the truth (067 100-2) (remaster 2003) - 1971, FLAC (tracks+.cue), lossless

Треклист:
The Undisputed truth - Face to face with the truth
Жанр: Funk, Soul
Год выпуска диска: 1971 (remaster 2003)
Производитель диска: Germany \ Motown
Аудио кодек: FLAC
Тип рипа: tracks+.cue
Битрейт аудио: lossless
Продолжительность: 00:42:56

1. You Make Your Own Heaven And Hell Right Here On Earth (7:00)
2. What It Is (4:58)
3. Ungena Za Ulimwengu (Unite The World) Friendship Train (8:54)
4. Superstar (3:10)
5. Take Me In Your Arms And Love Me (4:04)
6. Donґt Let Him Take Your Love From Me (5:26)
7. Whatґs Going On (9:24)
Собственноручный рип с оригинального диска от funky_cat!
 
Log EAC
Exact Audio Copy V0.99 prebeta 5 from 4. May 2009
EAC extraction logfile from 10. March 2010, 19:17
The Undisputed Truth / Face To Face With The Truth
Used drive : ASUS DRW-1608P2 Adapter: 0 ID: 0
Read mode : Secure
Utilize accurate stream : Yes
Defeat audio cache : Yes
Make use of C2 pointers : No
Read offset correction : 48
Overread into Lead-In and Lead-Out : No
Fill up missing offset samples with silence : Yes
Delete leading and trailing silent blocks : No
Null samples used in CRC calculations : Yes
Used interface : Native Win32 interface for Win NT & 2000
Gap handling : Appended to previous track
Used output format : User Defined Encoder
Selected bitrate : 320 kBit/s
Quality : High
Add ID3 tag : No
Command line compressor : C:\Program Files\FLAC\flac.exe
Additional command line options : -5 -V -T "ARTIST=%a" -T "TITLE=%t" -T "ALBUM=%g" -T "DATE=%y" -T "TRACKNUMBER=%n" -T "GENRE=%m" -T "COMMENT=Ripped By andygrakoff aka yetiisyou" %s
TOC of the extracted CD
Track | Start | Length | Start sector | End sector
---------------------------------------------------------
1 | 0:00.33 | 7:00.24 | 33 | 31556
2 | 7:00.57 | 4:58.63 | 31557 | 53969
3 | 11:59.45 | 8:54.06 | 53970 | 94025
4 | 20:53.51 | 3:10.01 | 94026 | 108276
5 | 24:03.52 | 4:04.45 | 108277 | 126621
6 | 28:08.22 | 5:26.54 | 126622 | 151125
7 | 33:35.01 | 9:24.63 | 151126 | 193488
Track 1
Filename E:\!Rips\FUNK @ SOUL\The Undisputed truth - Face to face with the truth (067 100-2)\01 – You Make Your Own Heaven And Hell Right Here On Earth.wav
Pre-gap length 0:00:02.44
Peak level 100.0 %
Track quality 100.0 %
Test CRC A58218DF
Copy CRC A58218DF
Accurately ripped (confidence 2) [36196E07]
Copy OK
Track 2
Filename E:\!Rips\FUNK @ SOUL\The Undisputed truth - Face to face with the truth (067 100-2)\02 – What It Is.wav
Pre-gap length 0:00:02.40
Peak level 98.2 %
Track quality 99.9 %
Test CRC 89331CFF
Copy CRC 89331CFF
Accurately ripped (confidence 2) [AC6AF70B]
Copy OK
Track 3
Filename E:\!Rips\FUNK @ SOUL\The Undisputed truth - Face to face with the truth (067 100-2)\03 – Ungena Za Ulimwengu (Unite The World) Friendship Train.wav
Pre-gap length 0:00:02.18
Peak level 97.1 %
Track quality 100.0 %
Test CRC 5DA0B294
Copy CRC 5DA0B294
Accurately ripped (confidence 2) [8A2B8ED7]
Copy OK
Track 4
Filename E:\!Rips\FUNK @ SOUL\The Undisputed truth - Face to face with the truth (067 100-2)\04 – Superstar.wav
Pre-gap length 0:00:02.16
Peak level 98.0 %
Track quality 100.0 %
Test CRC 401B9FA8
Copy CRC 401B9FA8
Accurately ripped (confidence 2) [9FEC54E6]
Copy OK
Track 5
Filename E:\!Rips\FUNK @ SOUL\The Undisputed truth - Face to face with the truth (067 100-2)\05 – Take Me In Your Arms And Love Me.wav
Pre-gap length 0:00:02.22
Peak level 96.1 %
Track quality 100.0 %
Test CRC BF54CD61
Copy CRC BF54CD61
Accurately ripped (confidence 2) [D6E2E5F9]
Copy OK
Track 6
Filename E:\!Rips\FUNK @ SOUL\The Undisputed truth - Face to face with the truth (067 100-2)\06 – Donґt Let Him Take Your Love From Me.wav
Pre-gap length 0:00:02.36
Peak level 96.1 %
Track quality 100.0 %
Test CRC 80DF1470
Copy CRC 80DF1470
Accurately ripped (confidence 2) [1E272554]
Copy OK
Track 7
Filename E:\!Rips\FUNK @ SOUL\The Undisputed truth - Face to face with the truth (067 100-2)\07 – Whatґs Going On.wav
Pre-gap length 0:00:02.18
Peak level 95.6 %
Track quality 99.9 %
Test CRC 170754BB
Copy CRC 170754BB
Accurately ripped (confidence 2) [B7A5683A]
Copy OK
All tracks accurately ripped
No errors occurred
End of status report
 
CUE
REM GENRE "Soul Funk"
REM DATE 1971
REM DISCID 490A1307
REM COMMENT "ExactAudioCopy v0.99pb5"
PERFORMER "The Undisputed truth"
TITLE "Face to face with the truth"
FILE "01 – You make your own heaven and hell right here on earth.wav" WAVE
TRACK 01 AUDIO
TITLE "You make your own heaven and hell right here on earth"
PERFORMER "The Undisputed truth"
PREGAP 00:00:33
INDEX 01 00:00:00
TRACK 02 AUDIO
TITLE "What it is"
PERFORMER "The Undisputed truth"
INDEX 00 06:57:69
FILE "02 – What it is.wav" WAVE
INDEX 01 00:00:00
TRACK 03 AUDIO
TITLE "Ungena Za Ulimwengu (unite the world) Friendship train"
PERFORMER "The Undisputed truth"
INDEX 00 04:56:49
FILE "03 – Ungena Za Ulimwengu (unite the world) Friendship train.wav" WAVE
INDEX 01 00:00:00
TRACK 04 AUDIO
TITLE "Superstar"
PERFORMER "The Undisputed truth"
INDEX 00 08:51:69
FILE "04 – Superstar.wav" WAVE
INDEX 01 00:00:00
TRACK 05 AUDIO
TITLE "Take me in your arms and love me"
PERFORMER "The Undisputed truth"
INDEX 00 03:07:59
FILE "05 – Take me in your arms and love me.wav" WAVE
INDEX 01 00:00:00
TRACK 06 AUDIO
TITLE "Donґt let him take your love from me"
PERFORMER "The Undisputed truth"
INDEX 00 04:02:18
FILE "06 – Donґt let him take your love from me.wav" WAVE
INDEX 01 00:00:00
TRACK 07 AUDIO
TITLE "Whatґs going on"
PERFORMER "The Undisputed truth"
INDEX 00 05:24:40
FILE "07 – Whatґs going on.wav" WAVE
INDEX 01 00:00:00
Приватный:
Нет (DHT включён)
Размер:
295.64 Мб (309,997,565 байт) » файлов: 19
Участники:
0 раздают, 1 качают (1 участников всего)
Внешние участники:
5 раздают, 1 качают (6 участников всего) [ Обновить ]
Есть вопросы - пишите личное сообщение пользователю M0p94ok.
03:31
34
Нет комментариев. Ваш будет первым!