Поиск

(Jazz-Funk, Soul-Jazz) [CD] Chris Hazelton's Boogaloo Seven - Soul Jazz Fridays - 2016, FLAC (tracks+.cue), lossless

(Jazz-Funk, Soul-Jazz) [CD] Chris Hazelton's Boogaloo Seven - Soul Jazz Fridays - 2016, FLAC (tracks+.cue), lossless
Треклист:
Chris Hazelton's Boogaloo Seven - Soul Jazz Fridays Жанр: Jazz-Funk, Soul-Jazz
Носитель: CD
Год издания: 2016
Издатель (лейбл): Sunflower Soul Records
Номер по каталогу: SS-3001
Аудиокодек: FLAC (*.flac)
Тип рипа: tracks+.cue
Битрейт аудио: lossless
Продолжительность: 40:34
Источник (релизер): ruskaval
Наличие сканов в содержимом раздачи: да
Треклист:
01. Hip Shaker (5:33)
02. Onsaya Joy (7:18)
03. Theme For Theo (6:37)
04. The Grand Avenue Get-Down (6:19)
05. Retlemecaf (7:02)
06. Suit & Tie (7:45)
Personnel:
Chris Hazelton - Hammond B-3 organ
Nick Howell - trumpet, tambourine
Nick Rowland - alto saxophone, tenor saxophone
Brett Jackson - baritone saxophone
Matt Hopper - guitar
Danny Rojas - drums
Pat Conway - congas, percussion
Rec.: live at the Green Lady Lounge, Kansas City, MO, October 26, 2015.
 
 
Об альбоме (сборнике)
For over two years, organist Chris Hazelton and his soulful septet, the Boogaloo 7, have held down a wildly successful residency every Friday night at Kansas City's acclaimed Green Lady Lounge. Expanding on the funky sounds popularized by Jimmy McGriff, Charles Earland, Lou Donaldson, and others, this group brings a mixture of original tunes and covers, both old and new, that excite and move audiences week after week. With two in-demand 45rpm singles already under their belt, the logical next step was a full length album, and this one catches them in their element: live at the club they call home.
Expanding on the funky sounds popularized by Jimmy McGriff, Charles Earland, Lou Donaldson, and others, this group brings a mixture of original tunes and covers, both old and new, that excite and move audiences week after week at KC's Green Lady Lounge.
“You may not be able to make it to Kansas City to see these guys live on a Friday night, but Soul Jazz Fridays takes you there front and center. Be ready to get funky.”
~ Jamison Harvey, FleaMarketFunk.com

 
Лог создания рипа
Exact Audio Copy V1.1 from 23. June 2015
EAC extraction logfile from 28. May 2017, 19:51
Chris Hazelton / Soul Jazz Fridays
Used drive : MATSHITADVD+-RW SW830 Adapter: 1 ID: 0
Read mode : Secure
Utilize accurate stream : Yes
Defeat audio cache : Yes
Make use of C2 pointers : No
Read offset correction : 6
Overread into Lead-In and Lead-Out : No
Fill up missing offset samples with silence : Yes
Delete leading and trailing silent blocks : No
Null samples used in CRC calculations : Yes
Used interface : Native Win32 interface for Win NT & 2000
Gap handling : Appended to previous track
Used output format : User Defined Encoder
Selected bitrate : 896 kBit/s
Quality : High
Add ID3 tag : No
Command line compressor : C:\Program Files (x86)\Exact Audio Copy\Flac\flac.exe
Additional command line options : -8 -V -T "ARTIST=%artist%" -T "TITLE=%title%" -T "ALBUM=%albumtitle%" -T "DATE=%year%" -T "TRACKNUMBER=%tracknr%" -T "TOTALTRACKS=%numtracks%" -T "GENRE=%genre%" -T "ALBUMARTIST=%albumartist%" -T "ALBUM ARTIST=%albumartist%" -T "COMMENT=EAC Secure Mode, Test & Copy, AccurateRip, FLAC -8" %source%
TOC of the extracted CD
Track | Start | Length | Start sector | End sector
---------------------------------------------------------
1 | 0:00.00 | 5:33.03 | 0 | 24977
2 | 5:33.03 | 7:18.20 | 24978 | 57847
3 | 12:51.23 | 6:37.10 | 57848 | 87632
4 | 19:28.33 | 6:18.57 | 87633 | 116039
5 | 25:47.15 | 7:01.68 | 116040 | 147682
6 | 32:49.08 | 7:44.59 | 147683 | 182541
Track 1
Filename G:\New Rips\Chris Hazelton - Soul Jazz Fridays (2016) [FLAC]\01 - Hip Shaker.wav
Pre-gap length 0:00:02.00
Peak level 98.8 %
Extraction speed 4.8 X
Track quality 100.0 %
Test CRC CFE990CC
Copy CRC CFE990CC
Accurately ripped (confidence 1) [938DCB1F] (AR v2)
Copy OK
Track 2
Filename G:\New Rips\Chris Hazelton - Soul Jazz Fridays (2016) [FLAC]\02 - Onsaya Joy.wav
Pre-gap length 0:00:01.00
Peak level 98.8 %
Extraction speed 5.7 X
Track quality 100.0 %
Test CRC 98795B5E
Copy CRC 98795B5E
Accurately ripped (confidence 1) [FBCA6314] (AR v2)
Copy OK
Track 3
Filename G:\New Rips\Chris Hazelton - Soul Jazz Fridays (2016) [FLAC]\03 - Theme For Theo.wav
Pre-gap length 0:00:01.00
Peak level 98.8 %
Extraction speed 6.3 X
Track quality 100.0 %
Test CRC 16C0AAFE
Copy CRC 16C0AAFE
Accurately ripped (confidence 1) [FC4200B3] (AR v2)
Copy OK
Track 4
Filename G:\New Rips\Chris Hazelton - Soul Jazz Fridays (2016) [FLAC]\04 - The Grand Avenue Get-Down.wav
Pre-gap length 0:00:01.00
Peak level 98.8 %
Extraction speed 6.9 X
Track quality 100.0 %
Test CRC 69A87874
Copy CRC 69A87874
Accurately ripped (confidence 1) [02C0210E] (AR v2)
Copy OK
Track 5
Filename G:\New Rips\Chris Hazelton - Soul Jazz Fridays (2016) [FLAC]\05 - Retlemecaf.wav
Pre-gap length 0:00:01.00
Peak level 98.8 %
Extraction speed 7.4 X
Track quality 100.0 %
Test CRC E234547E
Copy CRC E234547E
Accurately ripped (confidence 1) [606AE96B] (AR v2)
Copy OK
Track 6
Filename G:\New Rips\Chris Hazelton - Soul Jazz Fridays (2016) [FLAC]\06 - Suit And Tie.wav
Pre-gap length 0:00:01.00
Peak level 98.8 %
Extraction speed 7.2 X
Track quality 99.9 %
Test CRC 38435D85
Copy CRC 38435D85
Accurately ripped (confidence 1) [ADC6E98B] (AR v2)
Copy OK
All tracks accurately ripped
No errors occurred
End of status report
---- CUETools DB Plugin V2.1.6
[CTDB TOCID: tFs1f31jHnA99..EmUO9jt3ZnHY-] found
Submit result: tFs1f31jHnA99..EmUO9jt3ZnHY- has been confirmed
Track | CTDB Status
1 | (1/1) Accurately ripped
2 | (1/1) Accurately ripped
3 | (1/1) Accurately ripped
4 | (1/1) Accurately ripped
5 | (1/1) Accurately ripped
6 | (1/1) Accurately ripped
==== Log checksum 28EF00228952A50F9A52CCF78F4A96FAA5F7CBFDD94F9124C72270B80CFA738B ====
 
Содержание индексной карты (.CUE)
REM GENRE Jazz
REM DATE 2016
REM DISCID 4C098106
REM COMMENT "ExactAudioCopy v1.1"
PERFORMER "Chris Hazelton"
TITLE "Soul Jazz Fridays"
FILE "01 - Hip Shaker.wav" WAVE
TRACK 01 AUDIO
TITLE "Hip Shaker"
PERFORMER "Chris Hazelton"
INDEX 01 00:00:00
TRACK 02 AUDIO
TITLE "Onsaya Joy"
PERFORMER "Chris Hazelton"
INDEX 00 05:32:03
FILE "02 - Onsaya Joy.wav" WAVE
INDEX 01 00:00:00
TRACK 03 AUDIO
TITLE "Theme For Theo"
PERFORMER "Chris Hazelton"
INDEX 00 07:17:20
FILE "03 - Theme For Theo.wav" WAVE
INDEX 01 00:00:00
TRACK 04 AUDIO
TITLE "The Grand Avenue Get-Down"
PERFORMER "Chris Hazelton"
INDEX 00 06:36:10
FILE "04 - The Grand Avenue Get-Down.wav" WAVE
INDEX 01 00:00:00
TRACK 05 AUDIO
TITLE "Retlemecaf"
PERFORMER "Chris Hazelton"
INDEX 00 06:17:57
FILE "05 - Retlemecaf.wav" WAVE
INDEX 01 00:00:00
TRACK 06 AUDIO
TITLE "Suit And Tie"
PERFORMER "Chris Hazelton"
INDEX 00 07:00:68
FILE "06 - Suit And Tie.wav" WAVE
INDEX 01 00:00:00
Приватный:
Нет (DHT включён)
Размер:
280.56 Мб (294,186,709 байт) » файлов: 15
Участники:
0 раздают, 0 качают (0 участников всего)
Внешние участники:
2 раздают, 1 качают (3 участников всего) [ Обновить ]
No seeders - write personal message to user M0p94ok. Нет сидеров - пишите личное сообщение пользователю M0p94ok.
14:38
69
Нет комментариев. Ваш будет первым!