Поиск

(Neo-Soul) [CD] Slowly Rolling Camera - Into The Shadow - 2014, FLAC (tracks+.cue), lossless

(Neo-Soul) [CD] Slowly Rolling Camera - Into The Shadow - 2014, FLAC (tracks+.cue), lossless
Треклист:
Slowly Rolling Camera - Into The Shadow Жанр: Neo-Soul
Носитель: CD
Год издания: 2014
Издатель (лейбл): Edition Records
Номер по каталогу: EDN 1055
Аудиокодек: FLAC (*.flac)
Тип рипа: tracks+.cue
Битрейт аудио: lossless
Продолжительность: 24:56
Источник (релизер): ruskaval
Наличие сканов в содержимом раздачи: да
Треклист:
01. River's End (9:54)
02. Into The Shadow (5:46)
03. Anne (3:56)
04. Riga (5:20)
 
Slowly Rolling Camera
Dionne Bennett - lyrics, vocals
Deri Roberts - producer, sound design
Dave Stapleton - fender rhodes, synths
Elliot Bennett - drums
Musicians:
Stuart McCallum - guitar
Ben Waghorn - saxophone
Aidan Thorne - double bass
Additional Musicians:
Verneri Pohjola - trumpet
Matt Robertson - synth programming
Katy Rowe, Victoria Stapleton, Tanwen Evans - violin
Niamh Ferris, Bernard Kane - viola
Abigail Blackman, Beatrice Newman - cello
 
 
Несколько слов на английском
Slowly Rolling Camera formed in Cardiff in 2013 and brought together four wildly talented musicians from diverse backgrounds. The result was a captivating hybrid of these influences: trip hop, jazz, soul, electronic music fused into a new and unique soundscape. The product was their eponymous album, released on Edition Records in February 2014 and received ecstatically by press (including the Guardian and Stern Magazine) and audiences alike.
Live, they’ve proved a phenomenon, wowing audiences from Cardiff to Hamburg and at high profile festivals including Umea Jazz Festival (SE), Love Supreme (UK), London Jazz Festival (UK) and Reeperbahn Festival (DE).
SRC have spent 2014 honing their music on the road and have recently returned to the studio to record a bold and striking four track EP, Into The Shadow, for release on 10th November 2014. Into The Shadow sees the band deepen and further develop their sound, integrating lush electronic soundscapes, emotive melodies, shifts in dynamic and pace. With Elliot Bennett’s virtuosic, robust groove and Robert’s exemplary production techniques, it provides the perfect setting for the captivating, soulful voice of Dionne Bennett to impressively mould her lyrics around the musical arrangement.
In order to capture the spirit and energy of the band the EP was written and recorded in only three months. Employing the creative spirit and boundless energies of Mancunian master guitarist Stuart McCallum (Cinematic Orchestra), Bristol based Ben Waghorn on sax and Aidan Thorne, Cardiff’s top double bassist, Slowly Rolling Camera’s new recording has a big sound and big ambitions to match.
The suite-like opener River’s End, a song about asking for forgiveness, introduces a powerful and emotive ambience from the off. The title track, with its gloriously empowering crescendo, takes the power of love in transforming loneliness via the sweet sound of the string arrangements. Anne leads us through hope to regret with a beautifully raw and emotive stripped down arrangement featuring Fender Rhodes and Bennett’s intimate vocal set against a wall of strings and choral voices. The final track, Riga, forms a satisfying conclusion, its odd time signatures, shifting patterns, beats, grooves and moods defining everything that’s great about this band: bold, brave, experimental but with deep soul.
These four tracks confirm that SRC’s promise is no transient thing and indicates progression on a steep curve. ‘Into The Shadow’ continues to push the musical boundaries and there can only be excitement at where this young, immensely talented outfit can go next. But they remain rooted, however vaunting the ambition. As the band say: “If it moves you, it’s just good music”.

 
Лог создания рипа
Exact Audio Copy V1.1 from 23. June 2015
EAC extraction logfile from 9. March 2017, 19:59
Slowly Rolling Camera / Into The Shadow
Used drive : Optiarc DVD RW AD-7240S Adapter: 1 ID: 0
Read mode : Secure
Utilize accurate stream : Yes
Defeat audio cache : Yes
Make use of C2 pointers : No
Read offset correction : 48
Overread into Lead-In and Lead-Out : No
Fill up missing offset samples with silence : Yes
Delete leading and trailing silent blocks : No
Null samples used in CRC calculations : Yes
Used interface : Native Win32 interface for Win NT & 2000
Gap handling : Appended to previous track
Used output format : User Defined Encoder
Selected bitrate : 768 kBit/s
Quality : High
Add ID3 tag : No
Command line compressor : C:\Program Files\Exact Audio Copy\Flac\flac.exe
Additional command line options : -8 -V -T "ARTIST=%artist%" -T "TITLE=%title%" -T "ALBUM=%albumtitle%" -T "DATE=%year%" -T "TRACKNUMBER=%tracknr%" -T "TOTALTRACKS=%numtracks%" -T "GENRE=%genre%" -T "ALBUMARTIST=%albumartist%" -T "ALBUM ARTIST=%albumartist%" -T "COMMENT=EAC Secure Mode, Test & Copy, AccurateRip, FLAC -8" %source%
TOC of the extracted CD
Track | Start | Length | Start sector | End sector
---------------------------------------------------------
1 | 0:00.00 | 9:54.22 | 0 | 44571
2 | 9:54.22 | 5:46.20 | 44572 | 70541
3 | 15:40.42 | 3:55.38 | 70542 | 88204
4 | 19:36.05 | 5:20.25 | 88205 | 112229
Track 1
Filename E:\AneL\MY RIPS\01 - River's End.wav
Pre-gap length 0:00:02.00
Peak level 100.0 %
Extraction speed 2.5 X
Track quality 99.9 %
Test CRC 60815646
Copy CRC 60815646
Accurately ripped (confidence 4) [CE08CE08] (AR v2)
Copy OK
Track 2
Filename E:\AneL\MY RIPS\02 - Into the Shadow.wav
Peak level 100.0 %
Extraction speed 2.7 X
Track quality 99.9 %
Test CRC D4FC619F
Copy CRC D4FC619F
Accurately ripped (confidence 4) [DE8808ED] (AR v2)
Copy OK
Track 3
Filename E:\AneL\MY RIPS\03 - Anne.wav
Peak level 97.1 %
Extraction speed 3.1 X
Track quality 100.0 %
Test CRC B022C506
Copy CRC B022C506
Accurately ripped (confidence 4) [66D342DA] (AR v2)
Copy OK
Track 4
Filename E:\AneL\MY RIPS\04 - Riga.wav
Peak level 100.0 %
Extraction speed 3.4 X
Track quality 100.0 %
Test CRC B4E4D66A
Copy CRC B4E4D66A
Accurately ripped (confidence 4) [2F4FCEAA] (AR v2)
Copy OK
All tracks accurately ripped
No errors occurred
End of status report
---- CUETools DB Plugin V2.1.6
[CTDB TOCID: 92EBs8k3Nf8Cg.mFfUsLvgy4NpA-] found
Submit result: 92EBs8k3Nf8Cg.mFfUsLvgy4NpA- has been confirmed
Track | CTDB Status
1 | (5/5) Accurately ripped
2 | (5/5) Accurately ripped
3 | (5/5) Accurately ripped
4 | (5/5) Accurately ripped
==== Log checksum 88788764E8754677950B9C9293D660A78CE54FC4DE84A114D26198B2828A900F ====
 
Содержание индексной карты (.CUE)
REM GENRE Jazz
REM DATE 2014
REM DISCID 3605D804
REM COMMENT "ExactAudioCopy v1.1"
PERFORMER "Slowly Rolling Camera"
TITLE "Into The Shadow"
FILE "01 - River's End.wav" WAVE
TRACK 01 AUDIO
TITLE "River's End"
PERFORMER "Slowly Rolling Camera"
INDEX 01 00:00:00
FILE "02 - Into The Shadow.wav" WAVE
TRACK 02 AUDIO
TITLE "Into The Shadow"
PERFORMER "Slowly Rolling Camera"
INDEX 01 00:00:00
FILE "03 - Anne.wav" WAVE
TRACK 03 AUDIO
TITLE "Anne"
PERFORMER "Slowly Rolling Camera"
INDEX 01 00:00:00
FILE "04 - Riga.wav" WAVE
TRACK 04 AUDIO
TITLE "Riga"
PERFORMER "Slowly Rolling Camera"
INDEX 01 00:00:00
Приватный:
Нет (DHT включён)
Размер:
182.68 Мб (191,554,682 байт) » файлов: 14
Участники:
0 раздают, 0 качают (0 участников всего)
Внешние участники:
3 раздают, 1 качают (4 участников всего) [ Обновить ]
Есть вопросы - пишите личное сообщение пользователю M0p94ok.
14:39
73
Нет комментариев. Ваш будет первым!