Поиск

(Funk, Soul, R&B) [CD] The Isley Brothers - Winner Takes All (1979) - 1989, FLAC (image+.cue), lossless

(Funk, Soul, R&B) [CD] The Isley Brothers - Winner Takes All (1979) - 1989, FLAC (image+.cue), lossless
Треклист:
The Isley Brothers - Winner Takes All (1979) Жанр: Funk, Soul, R&B
Носитель: CD
Год издания: 1989
Издатель (лейбл): CBS/T-Neck Records
Номер по каталогу: ZGK 36077
Аудиокодек: FLAC (*.flac)
Тип рипа: image+.cue
Битрейт аудио: lossless
Продолжительность: 72:42
Rip by M@ce
Наличие сканов в содержимом раздачи: да
Треклист:
01. I Wanna Be With You, Parts 1 & 2 (6:22)
02. Liquid Love (5:18)
03. Winner Takes All (4:18)
04. Life In The City (7:56)
05. It's a Disco Night (Rock Don't Stop), Parts 1 & 2 (5:17)
06. (Can't You See) What You Do To Me (4:13)
07. Let's Fall in Love, Parts 1 & 2 (4:43)
08. How Lucky I Am, Parts 1 & 2 (5:43)
09. You're the Key to My Heart (3:23)
10. You're Beside Me, Parts 1 & 2 (5:39)
11. Let Me in Your Life, Parts 1 & 2 (5:11)
12. Love Comes and Goes, Parts 1 & 2 (5:09)
13. Go for What You Know (3:27)
14. Mind Over Matter, Parts 1 & 2 (6:04)
 
 
AllMusic Review by Craig Lytle
Winner Takes All was originally released as a two-album set, which reflected how popular the Isley Brothers were during this period of time. It features some rather lengthy but entertaining pieces. Ronald Isley's silky tenor remains untarnished throughout the album. "I Wanna Be with You" made its claim on the Billboard R&B charts, peaking at number one. "Winner Takes All" and "It's a Disco Night" followed in that order and only managed to reach numbers 38 and 27, respectively. Decent songs they are, but not as explosive as some of the Isley Brothers previously released up-tempo numbers. And as danceable as they, they come closer to good-listening songs. However, there are three solid ballads: "Let's Fall in Love," "How Lucky I Am" and "You're the Key to My Heart." Not one ever made a chart appearance, but all three remain popular to radio.

 
Лог создания рипа
Exact Audio Copy V1.3 from 2. September 2016
EAC extraction logfile from 22. July 2017, 3:16
The Isley Brothers / Winner Takes All
Used drive : ASUS DRW-24B1ST a Adapter: 1 ID: 0
Read mode : Secure
Utilize accurate stream : Yes
Defeat audio cache : Yes
Make use of C2 pointers : No
Read offset correction : 6
Overread into Lead-In and Lead-Out : No
Fill up missing offset samples with silence : Yes
Delete leading and trailing silent blocks : No
Null samples used in CRC calculations : Yes
Used interface : Native Win32 interface for Win NT & 2000
Used output format : User Defined Encoder
Selected bitrate : 896 kBit/s
Quality : High
Add ID3 tag : No
Command line compressor : C:\Program Files (x86)\Exact Audio Copy\Flac\flac.exe
Additional command line options : %ishigh%-V -p -l 12 -b 4096 -m -e -r 8%ishigh%%islow%-5%islow% --replay-gain -T "ARTIST=%artist%" -T "ALBUM=%albumtitle%" -T "TITLE=%title%" -T "DATE=%year%" -T "TRACKNUMBER=%tracknr%" -T "GENRE=%genre%" -T "ENSEMBLE=%albuminterpret%" -T "ALBUMARTIST=%albumartist%" -T "COMPOSER=%albumcomposer%" -T "DISCNUMBER=%cdnumber%" -T "TOTALDISCS=%totalcds%" -T "TOTALTRACKS=%numtracks%" -T "SOURCEMEDIA=CD" -T "COMMENT=%comment%" %hascover%-T "PICTURE=%coverfile%"%hascover% %source%
TOC of the extracted CD
Track | Start | Length | Start sector | End sector
---------------------------------------------------------
1 | 0:00.00 | 6:22.27 | 0 | 28676
2 | 6:22.27 | 5:17.65 | 28677 | 52516
3 | 11:40.17 | 4:18.08 | 52517 | 71874
4 | 15:58.25 | 7:56.10 | 71875 | 107584
5 | 23:54.35 | 5:16.45 | 107585 | 131329
6 | 29:11.05 | 4:13.07 | 131330 | 150311
7 | 33:24.12 | 4:43.10 | 150312 | 171546
8 | 38:07.22 | 5:42.45 | 171547 | 197241
9 | 43:49.67 | 3:23.05 | 197242 | 212471
10 | 47:12.72 | 5:38.58 | 212472 | 237879
11 | 52:51.55 | 5:10.45 | 237880 | 261174
12 | 58:02.25 | 5:08.70 | 261175 | 284344
13 | 63:11.20 | 3:27.00 | 284345 | 299869
14 | 66:38.20 | 6:04.10 | 299870 | 327179
Range status and errors
Selected range
Filename C:\Users\M@ce\Music\Archives\Rips\Burn WAV\The Isley Brothers - Winner Takes All.wav
Peak level 99.9 %
Extraction speed 6.5 X
Range quality 100.0 %
Test CRC 77F1FDC1
Copy CRC 77F1FDC1
Copy OK
No errors occurred
AccurateRip summary
Track 1 accurately ripped (confidence 4) [02D6A019] (AR v2)
Track 2 accurately ripped (confidence 4) [08D76455] (AR v2)
Track 3 accurately ripped (confidence 5) [302BC772] (AR v2)
Track 4 accurately ripped (confidence 5) [DBEA972E] (AR v2)
Track 5 accurately ripped (confidence 5) [390CC5C4] (AR v2)
Track 6 accurately ripped (confidence 5) [AE0DCF7B] (AR v2)
Track 7 accurately ripped (confidence 5) [192B74F3] (AR v2)
Track 8 accurately ripped (confidence 5) [A903A067] (AR v2)
Track 9 accurately ripped (confidence 5) [6824C64D] (AR v2)
Track 10 accurately ripped (confidence 5) [1B5D7854] (AR v2)
Track 11 accurately ripped (confidence 4) [4AC12440] (AR v2)
Track 12 accurately ripped (confidence 5) [0C2B3BD7] (AR v2)
Track 13 accurately ripped (confidence 4) [E38BA9A9] (AR v2)
Track 14 accurately ripped (confidence 4) [72D07D7E] (AR v2)
All tracks accurately ripped
End of status report
---- CUETools DB Plugin V2.1.6
[CTDB TOCID: kzNA1WYqvp.SiNHLwdBRGv3iyOM-] found
Submit result: kzNA1WYqvp.SiNHLwdBRGv3iyOM- has been confirmed
Track | CTDB Status
1 | (8/8) Accurately ripped
2 | (8/8) Accurately ripped
3 | (8/8) Accurately ripped
4 | (8/8) Accurately ripped
5 | (8/8) Accurately ripped
6 | (8/8) Accurately ripped
7 | (8/8) Accurately ripped
8 | (8/8) Accurately ripped
9 | (8/8) Accurately ripped
10 | (8/8) Accurately ripped
11 | (8/8) Accurately ripped
12 | (8/8) Accurately ripped
13 | (8/8) Accurately ripped
14 | (8/8) Accurately ripped
==== Log checksum 31C358A36961BAF5526A76D300B145D175E359058ABF092F31010F53D672B17B ====
 
Содержание индексной карты (.CUE)
REM GENRE Soul
REM DATE 1979
REM DISCID BC110A0E
REM COMMENT "ExactAudioCopy v1.3"
PERFORMER "The Isley Brothers"
TITLE "Winner Takes All"
REM COMPOSER "Rudolph Isley / O'Kelly Isley / Ronald Isley / Ernie Isley / Marvin Isley / C..."
FILE "The Isley Brothers - Winner Takes All.flac" WAVE
TRACK 01 AUDIO
TITLE "I Wanna Be With You, Parts 1 & 2"
PERFORMER "The Isley Brothers"
REM COMPOSER "Rudolph Isley / O'Kelly Isley / Ronald Isley / Ernie Isley / Marvin Isley / C..."
INDEX 01 00:00:00
TRACK 02 AUDIO
TITLE "Liquid Love"
PERFORMER "The Isley Brothers"
REM COMPOSER "Rudolph Isley / O'Kelly Isley / Ronald Isley / Ernie Isley / Marvin Isley / C..."
INDEX 00 06:21:07
INDEX 01 06:22:27
TRACK 03 AUDIO
TITLE "Winner Takes All"
PERFORMER "The Isley Brothers"
REM COMPOSER "Rudolph Isley / O'Kelly Isley / Ronald Isley / Ernie Isley / Marvin Isley / C..."
INDEX 00 11:39:42
INDEX 01 11:40:17
TRACK 04 AUDIO
TITLE "Life In The City"
PERFORMER "The Isley Brothers"
REM COMPOSER "Rudolph Isley / O'Kelly Isley / Ronald Isley / Ernie Isley / Marvin Isley / C..."
INDEX 00 15:57:15
INDEX 01 15:58:25
TRACK 05 AUDIO
TITLE "It's a Disco Night (Rock Don't Stop), Parts 1 & 2"
PERFORMER "The Isley Brothers"
REM COMPOSER "Rudolph Isley / O'Kelly Isley / Ronald Isley / Ernie Isley / Marvin Isley / C..."
INDEX 00 23:53:20
INDEX 01 23:54:35
TRACK 06 AUDIO
TITLE "(Can't You See) What You Do To Me"
PERFORMER "The Isley Brothers"
REM COMPOSER "Rudolph Isley / O'Kelly Isley / Ronald Isley / Ernie Isley / Marvin Isley / C..."
INDEX 00 29:09:70
INDEX 01 29:11:05
TRACK 07 AUDIO
TITLE "Let's Fall in Love, Parts 1 & 2"
PERFORMER "The Isley Brothers"
REM COMPOSER "Rudolph Isley / O'Kelly Isley / Ronald Isley / Ernie Isley / Marvin Isley / C..."
INDEX 00 33:23:10
INDEX 01 33:24:12
TRACK 08 AUDIO
TITLE "How Lucky I Am, Parts 1 & 2"
PERFORMER "The Isley Brothers"
REM COMPOSER "Rudolph Isley / O'Kelly Isley / Ronald Isley / Ernie Isley / Marvin Isley / C..."
INDEX 00 38:05:70
INDEX 01 38:07:22
TRACK 09 AUDIO
TITLE "You're the Key to My Heart"
PERFORMER "The Isley Brothers"
REM COMPOSER "Rudolph Isley / O'Kelly Isley / Ronald Isley / Ernie Isley / Marvin Isley / C..."
INDEX 00 43:49:10
INDEX 01 43:49:67
TRACK 10 AUDIO
TITLE "You're Beside Me, Parts 1 & 2"
PERFORMER "The Isley Brothers"
REM COMPOSER "Rudolph Isley / O'Kelly Isley / Ronald Isley / Ernie Isley / Marvin Isley / C..."
INDEX 01 47:12:72
TRACK 11 AUDIO
TITLE "Let Me in Your Life, Parts 1 & 2"
PERFORMER "The Isley Brothers"
REM COMPOSER "Rudolph Isley / O'Kelly Isley / Ronald Isley / Ernie Isley / Marvin Isley / C..."
INDEX 00 52:50:55
INDEX 01 52:51:55
TRACK 12 AUDIO
TITLE "Love Comes and Goes, Parts 1 & 2"
PERFORMER "The Isley Brothers"
REM COMPOSER "Rudolph Isley / O'Kelly Isley / Ronald Isley / Ernie Isley / Marvin Isley / C..."
INDEX 00 58:01:55
INDEX 01 58:02:25
TRACK 13 AUDIO
TITLE "Go for What You Know"
PERFORMER "The Isley Brothers"
REM COMPOSER "Rudolph Isley / O'Kelly Isley / Ronald Isley / Ernie Isley / Marvin Isley / C..."
INDEX 00 63:09:70
INDEX 01 63:11:20
TRACK 14 AUDIO
TITLE "Mind Over Matter, Parts 1 & 2"
PERFORMER "The Isley Brothers"
REM COMPOSER "Rudolph Isley / O'Kelly Isley / Ronald Isley / Ernie Isley / Marvin Isley / C..."
INDEX 00 66:37:47
INDEX 01 66:38:20
Приватный:
Нет (DHT включён)
Размер:
480.92 Мб (504,278,880 байт) » файлов: 10
Участники:
0 раздают, 0 качают (0 участников всего)
Внешние участники:
3 раздают, 1 качают (4 участников всего) [ Обновить ]
Есть вопросы - пишите личное сообщение пользователю M0p94ok.
14:37
47
Нет комментариев. Ваш будет первым!