Поиск

(Funk, Soul) [CD] Bernard Wright - 'Nard (1981) / Funky Beat (1983) - 2011, FLAC (image+.cue), lossless

(Funk, Soul) [CD] Bernard Wright - 'Nard (1981) / Funky Beat (1983) - 2011, FLAC (image+.cue), lossless
Треклист:
Bernard Wright - 'Nard (1981) / Funky Beat (1983) Жанр: Funk, Soul
Носитель: CD
Год издания: 2011
Издатель (лейбл): Robinsongs/Cherry Red Records
Номер по каталогу: CDMRED481
Аудиокодек: FLAC (*.flac)
Тип рипа: image+.cue
Битрейт аудио: lossless
Продолжительность: 78:57
Rip by M@ce
Наличие сканов в содержимом раздачи: да
Треклист:
'Nard (1981)
01. Master Rocker (3:16)
02. Firebolt Hustle (4:12)
03. Haboglabotribin' (4:19)
04. Spinnin' (5:32)
05. Just Chillin' Out (4:35)
06. Bread Sandwiches (3:52)
07. Music Is The Key (4:56)
08. We're Just The Band (3:03)
09. Solar (7:19)
Funky Beat (1983)
10. Get Your Lover Back (4:48)
11. Funky Beat (5:41)
12. Video Generation (5:26)
13. Won't You Let Me Love You (3:58)
14. Mr. Clean (5:40)
15. Move Your Body (4:45)
16. Joy Spring (3:27)
17. Keep On Doing That Right Thing (4:09)
 
 
Об альбоме (сборнике)
Bernard Wright was a young piano player from Queens, New York who made these 2 Classic Jazz (Funk) albums in the early Eighties, Bernard was only sixteen when he recorded the 1981 album "'Nard". "'Nard features the two heavily sampled tracks "Hoboglabotribin" & "Spinnin", Snoop Dogg sampled "Hoboglabotribin" on the track "G's And Hustlers" & Skee-Lo sampled "Spinnin" on his Hit single `I Wish', and another highlight of the album is a version of Miles Davis' `Solar'. The "Funky Beat" album allowed Bernard to explore many areas of black music including Jazz, Soul, Funk & Break Beats. There are two standout tracks on the album Weldon Irvine's `Mr Clean' and the track `Joy Spring'; both tracks produced by Dave Grusin & Larry Rosen. The package contains extensive liner notes by Jazz FM's Ralph Tee.

 
Лог создания рипа
Exact Audio Copy V1.0 beta 2 from 29. April 2011
EAC extraction logfile from 22. January 2012, 22:39
Bernard Wright / 'Nard + Funky Beat
Used drive : Memorex 52MAXX 3252AJ1 Adapter: 1 ID: 0
Read mode : Secure
Utilize accurate stream : Yes
Defeat audio cache : Yes
Make use of C2 pointers : No
Read offset correction : 6
Overread into Lead-In and Lead-Out : No
Fill up missing offset samples with silence : Yes
Delete leading and trailing silent blocks : No
Null samples used in CRC calculations : Yes
Used interface : Native Win32 interface for Win NT & 2000
Used output format : User Defined Encoder
Selected bitrate : 1024 kBit/s
Quality : High
Add ID3 tag : No
Command line compressor : C:\Program Files (x86)\Exact Audio Copy\wavpack.exe
Additional command line options : -w "Artist=%artist%" -w "Title=%title%" -w "Album=%albumtitle%" -w "Year=%year%" -w "Track=%tracknr%" -w "Genre=%genre%" -h %source% %dest%
TOC of the extracted CD
Track | Start | Length | Start sector | End sector
---------------------------------------------------------
1 | 0:00.00 | 3:16.26 | 0 | 14725
2 | 3:16.26 | 4:11.66 | 14726 | 33616
3 | 7:28.17 | 4:19.31 | 33617 | 53072
4 | 11:47.48 | 5:31.57 | 53073 | 77954
5 | 17:19.30 | 4:34.41 | 77955 | 98545
6 | 21:53.71 | 3:52.35 | 98546 | 115980
7 | 25:46.31 | 4:55.68 | 115981 | 138173
8 | 30:42.24 | 3:03.18 | 138174 | 151916
9 | 33:45.42 | 7:18.64 | 151917 | 184830
10 | 41:04.31 | 4:48.15 | 184831 | 206445
11 | 45:52.46 | 5:40.51 | 206446 | 231996
12 | 51:33.22 | 5:25.54 | 231997 | 256425
13 | 56:59.01 | 3:58.03 | 256426 | 274278
14 | 60:57.04 | 5:39.42 | 274279 | 299745
15 | 66:36.46 | 4:45.10 | 299746 | 321130
16 | 71:21.56 | 3:26.70 | 321131 | 336650
17 | 74:48.51 | 4:08.54 | 336651 | 355304
Range status and errors
Selected range
Filename C:\Users\M@ce\Music\Archives\Rips\Bernard Wright - 'Nard + Funky Beat.wav
Peak level 100.0 %
Extraction speed 10.3 X
Range quality 100.0 %
Test CRC DFDC02BA
Copy CRC DFDC02BA
Copy OK
No errors occurred
AccurateRip summary
Track 1 accurately ripped (confidence 1) [741DD96D] (AR v2)
Track 2 accurately ripped (confidence 1) [3B3F8ABC] (AR v2)
Track 3 accurately ripped (confidence 1) [E719BECE] (AR v2)
Track 4 accurately ripped (confidence 1) [2606C213] (AR v2)
Track 5 accurately ripped (confidence 1) [E0EF03C9] (AR v2)
Track 6 accurately ripped (confidence 1) [4283766A] (AR v2)
Track 7 accurately ripped (confidence 1) [80038E93] (AR v2)
Track 8 accurately ripped (confidence 1) [B2CC55EA] (AR v2)
Track 9 accurately ripped (confidence 1) [62B12E6D] (AR v2)
Track 10 accurately ripped (confidence 1) [5B75E448] (AR v2)
Track 11 accurately ripped (confidence 1) [401DCB08] (AR v2)
Track 12 accurately ripped (confidence 1) [A2C220AC] (AR v2)
Track 13 accurately ripped (confidence 1) [2CE89AD1] (AR v2)
Track 14 accurately ripped (confidence 1) [49AFFC1D] (AR v2)
Track 15 accurately ripped (confidence 1) [52DB86F2] (AR v2)
Track 16 accurately ripped (confidence 1) [28751918] (AR v2)
Track 17 accurately ripped (confidence 1) [F5D84806] (AR v2)
All tracks accurately ripped
End of status report
---- CUETools DB Plugin V2.1.2
[CTDB TOCID: i8Pgz7ml_nNjpBytoirlvfmrxSU-] disk not present in database, Submit result: i8Pgz7ml_nNjpBytoirlvfmrxSU- has been uploaded
==== Log checksum 31A1B945332CF7A174A4C1A4AAD4892783B2158649423427E6B61DA88FB049E0 ====
 
Содержание индексной карты (.CUE)
REM GENRE Funk
REM DATE 2011
REM DISCID 01128111
REM COMMENT "ExactAudioCopy v1.0b2"
PERFORMER "Bernard Wright"
TITLE "'Nard + Funky Beat"
FILE "Bernard Wright - 'Nard + Funky Beat.flac" WAVE
TRACK 01 AUDIO
TITLE "Master Rocker"
PERFORMER "Bernard Wright"
INDEX 01 00:00:00
TRACK 02 AUDIO
TITLE "Firebolt Hustle"
PERFORMER "Bernard Wright"
INDEX 01 03:16:26
TRACK 03 AUDIO
TITLE "Haboglabotribin'"
PERFORMER "Bernard Wright"
INDEX 01 07:28:17
TRACK 04 AUDIO
TITLE "Spinnin'"
PERFORMER "Bernard Wright"
INDEX 01 11:47:48
TRACK 05 AUDIO
TITLE "Just Chillin' Out"
PERFORMER "Bernard Wright"
INDEX 01 17:19:30
TRACK 06 AUDIO
TITLE "Bread Sandwiches"
PERFORMER "Bernard Wright"
INDEX 01 21:53:71
TRACK 07 AUDIO
TITLE "Music Is The Key"
PERFORMER "Bernard Wright"
INDEX 01 25:46:31
TRACK 08 AUDIO
TITLE "We're Just The Band"
PERFORMER "Bernard Wright"
INDEX 01 30:42:24
TRACK 09 AUDIO
TITLE "Solar"
PERFORMER "Bernard Wright"
INDEX 01 33:45:42
TRACK 10 AUDIO
TITLE "Get Your Lover Back"
PERFORMER "Bernard Wright"
INDEX 01 41:04:31
TRACK 11 AUDIO
TITLE "Funky Beat"
PERFORMER "Bernard Wright"
INDEX 01 45:52:46
TRACK 12 AUDIO
TITLE "Video Generation"
PERFORMER "Bernard Wright"
INDEX 01 51:33:22
TRACK 13 AUDIO
TITLE "Won't You Let Me Love You"
PERFORMER "Bernard Wright"
INDEX 01 56:59:01
TRACK 14 AUDIO
TITLE "Mr. Clean"
PERFORMER "Bernard Wright"
INDEX 01 60:57:04
TRACK 15 AUDIO
TITLE "Move Your Body"
PERFORMER "Bernard Wright"
INDEX 01 66:36:46
TRACK 16 AUDIO
TITLE "Joy Spring"
PERFORMER "Bernard Wright"
INDEX 01 71:21:56
TRACK 17 AUDIO
TITLE "Keep On Doing That Right Thing"
PERFORMER "Bernard Wright"
INDEX 01 74:48:51
Приватный:
Нет (DHT включён)
Размер:
584.77 Мб (613,171,722 байт) » файлов: 11
Участники:
0 раздают, 0 качают (0 участников всего)
Внешние участники:
5 раздают, 1 качают (6 участников всего) [ Обновить ]
Есть вопросы - пишите личное сообщение пользователю M0p94ok.
14:36
47
Нет комментариев. Ваш будет первым!