Поиск

(Jazz, Funk. Soul) Bobby Byrd - On The Move ( I Can't Get Enough ) - 1993, FLAC (image+.cue), lossless

(Jazz, Funk. Soul) Bobby Byrd - On The Move ( I Can't Get Enough ) - 1993, FLAC (image+.cue), lossless
Треклист:
Bobby Byrd - On The Move ( I Can't Get Enough )
Жанр: Jazz, Funk. Soul
Год выпуска диска: 1993
Производитель диска: Soulciety Records / Germany
Аудио кодек: FLAC
Тип рипа: image+.cue
Битрейт аудио: lossless
Продолжительность: 0.46.03 ч.
Covers: 300dpi
Трэклист:
1 Try It Again
2 I'm On The Move
3 The Way To Get Down
4 Sayin' It And Doin' It Is Two Different Things
5 Never Get Enough (featuring Jacko Peake)
6 I Got It (It's Been A Long Time Coming)
7 Sunshine
8 Back From The Dead
9 Never Get Enough
 
Лог EAC
Exact Audio Copy V0.99 prebeta 4 from 23. January 2008
Отчёт EAC об извлечении, выполненном 20. декабря 2009, 17:47
Bobby Byrd / On The Move ( I Can't Get Enough )
Дисковод: PLEXTOR DVDR PX-810SA Adapter: 0 ID: 0
Режим чтения : Достоверность
Использование точного потока : Да
Отключение кэша аудио : Да
Использование указателей C2 : Нет
Коррекция смещения при чтении : 48
Способность читать области Lead-in и Lead-out : Нет
Заполнение пропущенных сэмплов тишиной : Да
Удаление блоков с тишиной в начале и конце : Нет
При вычислениях CRC использовались нулевые сэмплы : Да
Интерфейс : Встроенный Win32-интерфейс для Win NT/2000
Выходной формат : Внутренние WAV-операции
Формат сэмплов : 44.100 Гц; 16 бит; стерео
TOC извлечённого CD
Трек | Старт | Длительность | Начальный сектор | Конечный сектор
---------------------------------------------------------------------
1 | 0:00.00 | 5:17.62 | 0 | 23836
2 | 5:17.62 | 4:55.13 | 23837 | 45974
3 | 10:13.00 | 4:49.37 | 45975 | 67686
4 | 15:02.37 | 4:37.00 | 67687 | 88461
5 | 19:39.37 | 4:35.20 | 88462 | 109106
6 | 24:14.57 | 4:36.38 | 109107 | 129844
7 | 28:51.20 | 8:45.00 | 129845 | 169219
8 | 37:36.20 | 3:50.40 | 169220 | 186509
9 | 41:26.60 | 4:36.15 | 186510 | 207224
Характеристики диапазона извлечения и сообщения об ошибках
Выбранный диапазон
Имя файла E:\Загрузка\Out\Bobby Byrd - On The Move (1993)\Bobby Byrd - On The Move ( I Can't Get Enough ).wav
Пиковый уровень 99.4 %
Качество диапазона 100.0 %
CRC копии 2BD0DDFE
Копирование... OK
Ошибок не произошло
AccurateRip: сводка
Трек 1 точность не определена (достоверность 3) [2F3A3A1C], AccurateRip вернул [CA368C7F]
Трек 2 точность не определена (достоверность 3) [8709F2FC], AccurateRip вернул [972F6A56]
Трек 3 точность не определена (достоверность 3) [3ACFD1DC], AccurateRip вернул [9B6764C3]
Трек 4 точность не определена (достоверность 3) [D89A1888], AccurateRip вернул [9397BDC1]
Трек 5 точность не определена (достоверность 3) [5DB9917A], AccurateRip вернул [14D1B021]
Трек 6 точность не определена (достоверность 3) [618AD95E], AccurateRip вернул [41A363B2]
Трек 7 точность не определена (достоверность 3) [14F86F61], AccurateRip вернул [2BE3561C]
Трек 8 точность не определена (достоверность 3) [158A410A], AccurateRip вернул [D7998625]
Трек 9 точность не определена (достоверность 3) [10E43145], AccurateRip вернул [67D92438]
Ни один трек не прошёл проверки на точность
В вашей базе может быть иной вариант штамповки диска
Конец отчёта
Приватный:
Нет (DHT включён)
Размер:
320.45 Мб (336,013,562 байт) » файлов: 8
Участники:
0 раздают, 0 качают (0 участников всего)
Внешние участники:
2 раздают, 1 качают (3 участников всего) [ Обновить ]
Никого нет на раздаче - пишите личное сообщение M0p94ok
No seeders - write personal message to M0p94ok
01:57
28
Нет комментариев. Ваш будет первым!