Поиск

(Deep Soul/Southern Soul) Wilson Pickett — The Wicked Pickett (1966) - 2002, FLAC (image+.cue), lossless

(Deep Soul/Southern Soul) Wilson Pickett — The Wicked Pickett (1966) - 2002, FLAC (image+.cue), lossless
Треклист:
Wilson Pickett — The Wicked Pickett (1966)
Жанр: Deep Soul/Southern Soul
Год выпуска диска: 2002
Производитель диска: Германия (Atlantiс)
Аудио кодек: FLAC
Тип рипа: image+.cue
Битрейт аудио: lossless
Продолжительность: 30:43
Трэклист:
01. Mustang Sally 03:07
02. New Orleans 02:31
03. Sunny 03:10
04. Everybody Needs Someone To love 02:17
05. Ooh Poo Pah Doo 02:33
06. She Ain't Gonna Right 02:15
07. Knock On Wood 02:39
08. Time Is On My Side 02:34
09. Up Tight Good Woman 02:30
10. You Left The Water Running 02:28
11. Three Time Looser 02:20
12. Nothing You Can Do 02:12
 
отчёт ЕАС
Exact Audio Copy V0.99 prebeta 4 from 23. January 2008
Отчёт EAC об извлечении, выполненном 15. декабря 2009, 19:15
Wilson Pickett / The Wicked Pickett
Дисковод: Optiarc DVD RW AD-7203S Adapter: 1 ID: 1
Режим чтения : Достоверность
Использование точного потока : Да
Отключение кэша аудио : Да
Использование указателей C2 : Нет
Коррекция смещения при чтении : 48
Способность читать области Lead-in и Lead-out : Нет
Заполнение пропущенных сэмплов тишиной : Да
Удаление блоков с тишиной в начале и конце : Нет
При вычислениях CRC использовались нулевые сэмплы : Да
Интерфейс : Встроенный Win32-интерфейс для Win NT/2000
Выходной формат : Пользовательский кодировщик
Выбранный битрейт : 1024 kBit/s
Качество : Высокий
Добавление ID3-тэга : Нет
Утилита сжатия : C:\Program Files\Exact Audio Copy\Flac\flac.exe
Дополнительные параметры : -V -8 -T "artist=%a" -T "title=%t" -T "album=%g" -T "date=%y" -T "tracknumber=%n" -T "genre=%m" %s
TOC извлечённого CD
Трек | Старт | Длительность | Начальный сектор | Конечный сектор
---------------------------------------------------------------------
1 | 0:00.00 | 3:07.57 | 0 | 14081
2 | 3:07.57 | 2:31.43 | 14082 | 25449
3 | 5:39.25 | 3:10.52 | 25450 | 39751
4 | 8:50.02 | 2:17.18 | 39752 | 50044
5 | 11:07.20 | 2:33.30 | 50045 | 61549
6 | 13:40.50 | 2:15.55 | 61550 | 71729
7 | 15:56.30 | 2:39.37 | 71730 | 83691
8 | 18:35.67 | 2:34.58 | 83692 | 95299
9 | 21:10.50 | 2:30.55 | 95300 | 106604
10 | 23:41.30 | 2:28.42 | 106605 | 117746
11 | 26:09.72 | 2:20.43 | 117747 | 128289
12 | 28:30.40 | 2:12.52 | 128290 | 138241
Характеристики диапазона извлечения и сообщения об ошибках
Выбранный диапазон
Имя файла D:\EAC-FOLDER\Wilson Pickett - The Wicked Pickett\Wilson Pickett - The Wicked Pickett\Wilson Pickett - The Wicked Pickett.wav
Пиковый уровень 100.0 %
Качество диапазона 100.0 %
CRC теста 68BF3436
CRC копии 68BF3436
Копирование... OK
Ошибок не произошло
AccurateRip: сводка
Трек 1 точное извлечение (доверие 1) [149FE541]
Трек 2 точное извлечение (доверие 1) [38C78C8A]
Трек 3 точное извлечение (доверие 1) [76BF0937]
Трек 4 точное извлечение (доверие 1) [062CC2A2]
Трек 5 точное извлечение (доверие 1) [87164520]
Трек 6 точное извлечение (доверие 1) [D71E0C3F]
Трек 7 точное извлечение (доверие 1) [3222102C]
Трек 8 точное извлечение (доверие 1) [06EE5510]
Трек 9 точное извлечение (доверие 1) [3A1D0275]
Трек 10 точное извлечение (доверие 1) [9884059B]
Трек 11 точное извлечение (доверие 1) [83E55D39]
Трек 12 точное извлечение (доверие 1) [8FDB4B96]
Все треки извлечены точно
Конец отчёта
Доп. информация:

Тут говорить нечего:
легендарный альбом.
Маст хэф.
PS Рип свой. Внутри сканы.
Приватный:
Да (DHT отключён)
Размер:
160.45 Мб (168,244,496 байт) » файлов: 7
Участники:
0 раздают, 0 качают (0 участников всего)
Внешние участники:
1 раздают, 0 качают (1 участников всего) [ Обновить ]
01:58
28
Нет комментариев. Ваш будет первым!