Поиск

(Crossover Jazz, Soul Jazz) Voodoo Funk Project - Deep In the Cut - 2006, FLAC (image+.cue), lossless

(Crossover Jazz, Soul Jazz) Voodoo Funk Project - Deep In the Cut - 2006, FLAC (image+.cue), lossless
Треклист:
Voodoo Funk Project - Deep In the Cut
Жанр: Crossover Jazz, Soul Jazz
Год выпуска диска: 2006
Производитель диска: 215 Records / USA
Аудио кодек: FLAC
Тип рипа: image+.cue
Битрейт аудио: lossless
Продолжительность: 0.54.42 ч.
Covers: 300dpi
Трэклист:
01. Black Magic [0:05:51.30]
02. Keep Your Face to the Sun [0:05:46.45]
03. This Is Where? [0:06:25.33]
04. Merrucca [0:05:27.40]
05. The Witchdoctor [0:05:25.67]
06. Love Potion [0:05:28.03]
07. Memento [0:05:30.52]
08. Midnite on the Corner [0:06:09.48]
09. Trick or Treat [0:05:17.00]
10. Zombie Dance [0:03:20.32]
 
Лог EAC
Exact Audio Copy V0.99 prebeta 4 from 23. January 2008
Отчёт EAC об извлечении, выполненном 20. декабря 2009, 21:26
Voodoo Funk Project / Deep In the Cut
Дисковод: PLEXTOR DVDR PX-810SA Adapter: 0 ID: 0
Режим чтения : Достоверность
Использование точного потока : Да
Отключение кэша аудио : Да
Использование указателей C2 : Нет
Коррекция смещения при чтении : 48
Способность читать области Lead-in и Lead-out : Нет
Заполнение пропущенных сэмплов тишиной : Да
Удаление блоков с тишиной в начале и конце : Нет
При вычислениях CRC использовались нулевые сэмплы : Да
Интерфейс : Встроенный Win32-интерфейс для Win NT/2000
Выходной формат : Внутренние WAV-операции
Формат сэмплов : 44.100 Гц; 16 бит; стерео
TOC извлечённого CD
Трек | Старт | Длительность | Начальный сектор | Конечный сектор
---------------------------------------------------------------------
1 | 0:00.00 | 5:51.30 | 0 | 26354
2 | 5:51.30 | 5:46.45 | 26355 | 52349
3 | 11:38.00 | 6:25.33 | 52350 | 81257
4 | 18:03.33 | 5:27.40 | 81258 | 105822
5 | 23:30.73 | 5:25.67 | 105823 | 130264
6 | 28:56.65 | 5:28.03 | 130265 | 154867
7 | 34:24.68 | 5:30.52 | 154868 | 179669
8 | 39:55.45 | 6:09.48 | 179670 | 207392
9 | 46:05.18 | 5:17.00 | 207393 | 231167
10 | 51:22.18 | 3:20.32 | 231168 | 246199
Характеристики диапазона извлечения и сообщения об ошибках
Выбранный диапазон
Имя файла E:\Загрузка\Out\Voodoo Funk Project - Deep In the Cut (2006)\Voodoo Funk Project - Deep In the Cut.wav
Пиковый уровень 100.0 %
Качество диапазона 100.0 %
CRC копии 961F066C
Копирование... OK
Ошибок не произошло
AccurateRip: сводка
Трек 1 точность не определена (достоверность 1) [E488F612], AccurateRip вернул [9E0113DA]
Трек 2 точность не определена (достоверность 1) [A0BBD56E], AccurateRip вернул [73460D76]
Трек 3 точность не определена (достоверность 1) [AB7FC32D], AccurateRip вернул [F6576E5D]
Трек 4 точность не определена (достоверность 1) [609B52E7], AccurateRip вернул [90A5C6AF]
Трек 5 точность не определена (достоверность 1) [A0F9F8DE], AccurateRip вернул [54CD4D66]
Трек 6 точность не определена (достоверность 1) [4B94680C], AccurateRip вернул [35ADCA7C]
Трек 7 точность не определена (достоверность 1) [081CFB79], AccurateRip вернул [3948CCF9]
Трек 8 точность не определена (достоверность 1) [7D49D84F], AccurateRip вернул [526EE67F]
Трек 9 точность не определена (достоверность 1) [FB123EDC], AccurateRip вернул [58D86CB4]
Трек 10 точность не определена (достоверность 1) [91EDC5BA], AccurateRip вернул [9E4E13DA]
Ни один трек не прошёл проверки на точность
В вашей базе может быть иной вариант штамповки диска
Конец отчёта
Доп. информация: Прослушать: http://www.allmusic.com/cg/amg.dll?p=amg&sql=10:f9fixqwdldke
Приватный:
Нет (DHT включён)
Размер:
352.73 Мб (369,865,968 байт) » файлов: 9
Участники:
0 раздают, 0 качают (0 участников всего)
Внешние участники:
1 раздают, 0 качают (1 участников всего) [ Обновить ]
Никого нет на раздаче - пишите личное сообщение M0p94ok
No seeders - write personal message to M0p94ok
01:59
17
Нет комментариев. Ваш будет первым!