Поиск

(Soul) Minnie Riperton – Come to My Garden - 1970, FLAC (image+.cue), lossless

(Soul) Minnie Riperton – Come to My Garden - 1970, FLAC (image+.cue), lossless
Треклист:
Minnie Riperton – Come to My Garden
Жанр: Soul
Год выпуска диска: 1970
Производитель диска: USA
Аудио кодек: FLAC
Тип рипа: image+.cue
Битрейт аудио: lossless
Продолжительность: 37:11
Трэклист:
1. "Les Fleur" (Charles Stepney, Richard Rudolph) – 3:18
2. "Completeness" (Stepney, Rose Johnson) – 3:32
3. "Come to My Garden" (Rudolph) – 3:19
4. "Memory Band" (Stepney) – 4:05
5. "Rainy Day in Centerville" (Stepney, Rudolph) – 5:22
6. “Close Your Eyes and Remember" (Stepney, Rudolph) – 3:38
7. "Oh, By the Way" (Stepney, Rudolph) – 2:58
8. "Expecting" (Stepney, Jon Stocklin) – 3:51
9. "Only When I'm Dreaming" (Stepney, Sidney Barnes) – 3:24
10. "Whenever, Wherever" (Stepney, Johnson) – 3:34
Доп. информация: Tекущие раздачи
 
Info
Рип не мой. Источник AvaxHome. Thanks to original uploader.
Wikipedia info
 
EAC log
Exact Audio Copy V0.99 prebeta 4 from 23. January 2008
EAC extraction logfile from 14. November 2009, 8:43
Minnie Riperton / Come to My Garden
Used drive : _NEC DVD+-RW ND-3530A Adapter: 0 ID: 1
Read mode : Secure
Utilize accurate stream : Yes
Defeat audio cache : Yes
Make use of C2 pointers : No
Read offset correction : 48
Overread into Lead-In and Lead-Out : No
Fill up missing offset samples with silence : Yes
Delete leading and trailing silent blocks : No
Null samples used in CRC calculations : Yes
Used interface : Native Win32 interface for Win NT & 2000
Used output format : Internal WAV Routines
Sample format : 44.100 Hz; 16 Bit; Stereo
TOC of the extracted CD
Track | Start | Length | Start sector | End sector
---------------------------------------------------------
1 | 0:00.00 | 3:18.42 | 0 | 14891
2 | 3:18.42 | 3:27.03 | 14892 | 30419
3 | 6:45.45 | 3:16.30 | 30420 | 45149
4 | 10:02.00 | 4:06.67 | 45150 | 63666
5 | 14:08.67 | 5:21.25 | 63667 | 87766
6 | 19:30.17 | 3:40.33 | 87767 | 104299
7 | 23:10.50 | 3:03.00 | 104300 | 118024
8 | 26:13.50 | 3:54.45 | 118025 | 135619
9 | 30:08.20 | 3:26.42 | 135620 | 151111
10 | 33:34.62 | 3:31.50 | 151112 | 166986
Range status and errors
Selected range
Filename C:\Documents and Settings\My Documents\My Music\Minnie Riperton - Come to My Garden.wav
Peak level 99.2 %
Range quality 99.9 %
Copy CRC 0FBBCD7C
Copy OK
No errors occurred
AccurateRip summary
Track 1 not present in database
Track 2 not present in database
Track 3 not present in database
Track 4 not present in database
Track 5 not present in database
Track 6 not present in database
Track 7 not present in database
Track 8 not present in database
Track 9 not present in database
Track 10 not present in database
None of the tracks are present in the AccurateRip database
End of status report
 
Audiochecker
AUDIOCHECKER v1.2 - by Dester - opdester@freemail.hu
~~~~~~~~~~~~~~~~~
1 -===- D:\Muzika\Uploads\Minnie Riperton - Come to My Garden (Japanese pressing)\Minnie Riperton - Come to My Garden.flac
Extracted successfully
Conclusion: This track looks like CDDA with probability 100%
Приватный:
Нет (DHT включён)
Размер:
208.13 Мб (218,242,883 байт) » файлов: 11
Участники:
0 раздают, 0 качают (0 участников всего)
Внешние участники:
1 раздают, 0 качают (1 участников всего) [ Обновить ]
Никого нет на раздаче - пишите личное сообщение M0p94ok
No seeders - write personal message to M0p94ok
01:57
42
Нет комментариев. Ваш будет первым!