Поиск

(Jazz-Funk, Modal, Fusion) [CD] Rupture - Israel Suite - 1973 (2011 Japan Edition), FLAC (tracks+.cue), lossless

(Jazz-Funk, Modal, Fusion) [CD] Rupture - Israel Suite - 1973 (2011 Japan Edition), FLAC (tracks+.cue), lossless
Треклист:
Rupture - Israel Suite
Жанр: Jazz-Funk, Modal, Fusion
Носитель: CD
Страна-производитель диска (релиза): Япония
Год издания: 1973 (2011)
Издатель (лейбл): Creole Stream Music
Номер по каталогу: CSMCD-016
Страна исполнителя (группы): Франция
Аудиокодек: FLAC (*.flac)
Тип рипа: tracks+.cue
Битрейт аудио: lossless
Продолжительность: 36:13
Источник (релизер): wikieup
Наличие сканов в содержимом раздачи: сетевые
Треклист:
01. Mes Histoires Bleues (2:18)
02. Voyage Sous la Mer (3:27)
03. Alice aux Miroirs (3:09)
04. Autrefois (4:01)
05. Entre Ses Cils (4:35)
06. Israel Suite (18:43)
 
Лог создания рипа
Exact Audio Copy V1.0 beta 3 from 29. August 2011
EAC extraction logfile from 15. May 2013, 10:26
Rupture / Israel Suite
Used drive : TSSTcorpDVD-ROM TS-U333B Adapter: 0 ID: 1
Read mode : Secure
Utilize accurate stream : Yes
Defeat audio cache : Yes
Make use of C2 pointers : No
Read offset correction : 6
Overread into Lead-In and Lead-Out : No
Fill up missing offset samples with silence : Yes
Delete leading and trailing silent blocks : No
Null samples used in CRC calculations : Yes
Used interface : Native Win32 interface for Win NT & 2000
Gap handling : Appended to previous track
Used output format : User Defined Encoder
Selected bitrate : 1024 kBit/s
Quality : High
Add ID3 tag : No
Command line compressor : C:\Program Files\Exact Audio Copy\Flac\flac.exe
Additional command line options : -8 -V -T "ARTIST=%artist%" -T "TITLE=%title%" -T "ALBUM=%albumtitle%" -T "DATE=%year%" -T "TRACKNUMBER=%tracknr%" -T "GENRE=%genre%" -T "PERFORMER=%albuminterpret%" -T "COMPOSER=%composer%" %haslyrics%--tag-from-file=LYRICS="%lyricsfile%"%haslyrics% -T "ALBUMARTIST=%albumartist%" -T "DISCNUMBER=%cdnumber%" -T "TOTALDISCS=%totalcds%" -T "TOTALTRACKS=%numtracks%" -T "COMMENT=%comment%" %source% -o %dest%
TOC of the extracted CD
Track | Start | Length | Start sector | End sector
---------------------------------------------------------
1 | 0:00.00 | 2:17.72 | 0 | 10346
2 | 2:17.72 | 3:26.49 | 10347 | 25845
3 | 5:44.46 | 3:09.24 | 25846 | 40044
4 | 8:53.70 | 4:01.26 | 40045 | 58145
5 | 12:55.21 | 4:35.15 | 58146 | 78785
6 | 17:30.36 | 18:43.18 | 78786 | 163028
Track 1
Filename C:\EAC Rips\01 - Mes Histoires Bleues.wav
Pre-gap length 0:00:02.00
Peak level 89.6 %
Extraction speed 2.1 X
Track quality 100.0 %
Test CRC 27225934
Copy CRC 27225934
Track not present in AccurateRip database
Copy OK
Track 2
Filename C:\EAC Rips\02 - Voyage Sous La Mer.wav
Pre-gap length 0:00:02.00
Peak level 89.6 %
Extraction speed 2.4 X
Track quality 100.0 %
Test CRC DB32162B
Copy CRC DB32162B
Track not present in AccurateRip database
Copy OK
Track 3
Filename C:\EAC Rips\03 - Alice Aux Miroirs.wav
Pre-gap length 0:00:02.00
Peak level 88.6 %
Extraction speed 2.6 X
Track quality 100.0 %
Test CRC 62857032
Copy CRC 62857032
Track not present in AccurateRip database
Copy OK
Track 4
Filename C:\EAC Rips\04 - Autrefois.wav
Pre-gap length 0:00:02.00
Peak level 89.6 %
Extraction speed 2.5 X
Track quality 99.9 %
Test CRC 1E04D45C
Copy CRC 1E04D45C
Track not present in AccurateRip database
Copy OK
Track 5
Filename C:\EAC Rips\05 - Entre Ses Clis.wav
Pre-gap length 0:00:02.00
Peak level 88.9 %
Extraction speed 2.8 X
Track quality 99.9 %
Test CRC FBC893C6
Copy CRC FBC893C6
Track not present in AccurateRip database
Copy OK
Track 6
Filename C:\EAC Rips\06 - Israel Suite.wav
Pre-gap length 0:00:02.00
Peak level 98.8 %
Extraction speed 4.0 X
Track quality 100.0 %
Test CRC BE085C28
Copy CRC BE085C28
Track not present in AccurateRip database
Copy OK
None of the tracks are present in the AccurateRip database
No errors occurred
End of status report
==== Log checksum 11050077B022C83F3474B5C786E4B60253E50CE49E31B64B3E86C119E41E22C4 ====
 
Содержание индексной карты (.CUE)
REM GENRE Jazz
REM DATE 1973
REM DISCID 46087D06
REM COMMENT "ExactAudioCopy v1.0b3"
PERFORMER "Rupture"
TITLE "Israel Suite"
FILE "01 - Mes Histoires Bleues.wav" WAVE
TRACK 01 AUDIO
TITLE "Mes Histoires Bleues"
PERFORMER "Rupture"
INDEX 01 00:00:00
TRACK 02 AUDIO
TITLE "Voyage Sous la Mer"
PERFORMER "Rupture"
INDEX 00 02:15:72
FILE "02 - Voyage Sous la Mer.wav" WAVE
INDEX 01 00:00:00
TRACK 03 AUDIO
TITLE "Alice aux Miroirs"
PERFORMER "Rupture"
INDEX 00 03:24:49
FILE "03 - Alice aux Miroirs.wav" WAVE
INDEX 01 00:00:00
TRACK 04 AUDIO
TITLE "Autrefois"
PERFORMER "Rupture"
INDEX 00 03:07:24
FILE "04 - Autrefois.wav" WAVE
INDEX 01 00:00:00
TRACK 05 AUDIO
TITLE "Entre Ses Cils"
PERFORMER "Rupture"
INDEX 00 03:59:26
FILE "05 - Entre Ses Cils.wav" WAVE
INDEX 01 00:00:00
TRACK 06 AUDIO
TITLE "Israel Suite"
PERFORMER "Rupture"
INDEX 00 04:33:15
FILE "06 - Israel Suite.wav" WAVE
INDEX 01 00:00:00
 
Об альбоме (сборнике)
Probably the rarest vocal jazz funk album produced in France. Conceived by Sylvain Krief (ex-drummer of the Michel Fugain's Big Bazar and better known as the mysterious Airto Fogo) with the help of the french song writer Boris Bergman and pianist Jean-Pierre Mas who composed severals tracks. This clearly impossible to find brilliant concept album has not been recorded in the goal of expressing the political vision of the musicians. As Sylvain states "it was more a bunch of friends that I gathered. Yves Chamberland, owner the Studio Davout (also known for producing another cult french masterpiece : Les Masques) let the band use the studio, we recorded several tunes during May & June". Guest artists like Nicole Croisille, Michel Fugain also gave a little help to their friend for some chorus, while rythmic section was guaranteed by Jean-François Jenny Clark on bass and Georges Locatelli on guitar. Sax legend Jean-louis Chautemps makes some quick apparence also. The long esoteric piece "Israel Suite" on side 1 relates the struggles of young Nation of Israel and is musicaly inspired by the electric funky jazz fusion of Herbie Hancock and also influenced by the modal jazz of Arvanitas or Gilson. The B side mostly composed by Jean-Pierre Mas features 6 beautiful pop jazz chansons fusion that instantly reminds Cortex "Troupeau Bleu". We don't really know exactly how many original copies were made but you can bet it is under 100 and we are now sure it was never commercialy released.
-- Digger's digest
Приватный:
Нет (DHT включён)
Размер:
226.90 Мб (237,920,951 байт) » файлов: 14
Участники:
0 раздают, 0 качают (0 участников всего)
Внешние участники:
2 раздают, 1 качают (3 участников всего) [ Обновить ]
No seeders - write a personal message to user M0p94ok. Нет сидеров - пишите личное сообщение пользователю M0p94ok.
13:14
91
Нет комментариев. Ваш будет первым!