Поиск

(Soul, Funk) [CD] Stevie Wonder - Talking Book - 1972 (Reissue 2001), FLAC (image+.cue), lossless

(Soul, Funk) [CD] Stevie Wonder - Talking Book - 1972 (Reissue 2001), FLAC (image+.cue), lossless
Треклист:
Stevie Wonder / Talking Book
Жанр: Soul, Funk
Носитель: CD
Страна-производитель диска (релиза): Italy
Год издания: 1972
Издатель (лейбл): Gruppo Editoriale L'Espresso S.p.A
Номер по каталогу: BME 02
Страна исполнителя (группы): USA
Аудиокодек: FLAC (*.flac)
Тип рипа: image+.cue
Битрейт аудио: lossless
Продолжительность: 00:43:30
Источник (релизер): alexpika
Наличие сканов в содержимом раздачи: да
Треклист:
01. You Are The Sunshine Of My Life 02:59
02. Maybe Your Baby 06:50
03. You And I 04:38
04. Tuesday Heartbreak 03:02
05. You've Got It Bad Girl 04:58
06. Superstition 04:25
07. Big Brother 03:33
08. Blame It On The Sun 03:25
09. Looking For Another Pure Love 04:43
10. I Believe (When I Fall In Love It Will Be Forever) 04:52
 
Лог создания рипа
Exact Audio Copy V1.0 beta 3 from 29. August 2011
EAC extraction logfile from 4. March 2017, 8:18
Stevie Wonder / Talking Book
Used drive : TSSTcorpCDDVDW SH-216DB Adapter: 0 ID: 0
Read mode : Secure
Utilize accurate stream : Yes
Defeat audio cache : Yes
Make use of C2 pointers : No
Read offset correction : 6
Overread into Lead-In and Lead-Out : No
Fill up missing offset samples with silence : Yes
Delete leading and trailing silent blocks : No
Null samples used in CRC calculations : Yes
Used interface : Native Win32 interface for Win NT & 2000
Used output format : User Defined Encoder
Selected bitrate : 1024 kBit/s
Quality : High
Add ID3 tag : No
Command line compressor : C:\Program Files (x86)\Exact Audio Copy\Flac\flac.exe
Additional command line options : -V -8 -T "Date=%year%" -T "Genre=%genre%" %source%
TOC of the extracted CD
Track | Start | Length | Start sector | End sector
---------------------------------------------------------
1 | 0:00.33 | 2:59.17 | 33 | 13474
2 | 2:59.50 | 6:51.10 | 13475 | 44309
3 | 9:50.60 | 4:37.73 | 44310 | 65157
4 | 14:28.58 | 3:02.37 | 65158 | 78844
5 | 17:31.20 | 4:56.73 | 78845 | 101117
6 | 22:28.18 | 4:26.07 | 101118 | 121074
7 | 26:54.25 | 3:33.53 | 121075 | 137102
8 | 30:28.03 | 3:26.10 | 137103 | 152562
9 | 33:54.13 | 4:43.60 | 152563 | 173847
10 | 38:37.73 | 4:52.70 | 173848 | 195817
Range status and errors
Selected range
Filename L:\Private\My Audio Ripps\ CD - RIPS\Stevie Wonder - Talking Book\Stevie Wonder - Talking Book.wav
Peak level 100.0 %
Extraction speed 2.4 X
Range quality 100.0 %
Test CRC 3CD12F7B
Copy CRC 3CD12F7B
Copy OK
No errors occurred
AccurateRip summary
Track 1 accurately ripped (confidence 7) [00F48E56] (AR v2)
Track 2 accurately ripped (confidence 6) [8FEBC9D8] (AR v2)
Track 3 accurately ripped (confidence 6) [CC7E851F] (AR v2)
Track 4 accurately ripped (confidence 6) [9B69E8D5] (AR v2)
Track 5 accurately ripped (confidence 7) [53D41008] (AR v2)
Track 6 accurately ripped (confidence 7) [AE4F26D9] (AR v2)
Track 7 accurately ripped (confidence 7) [DFF56D8A] (AR v2)
Track 8 accurately ripped (confidence 7) [BDC261AF] (AR v2)
Track 9 accurately ripped (confidence 7) [A5944417] (AR v2)
Track 10 accurately ripped (confidence 6) [690B2532] (AR v2)
All tracks accurately ripped
End of status report
==== Log checksum 957742144AD348A89C6FE773B4EACB166EE6FCB2329510F622459B464548EEE3 ====
 
Содержание индексной карты (.CUE)
REM GENRE R&B
REM DATE 1972
REM DISCID 710A320A
REM COMMENT "ExactAudioCopy v1.0b3"
PERFORMER "Stevie Wonder"
TITLE "Talking Book"
FILE "Stevie Wonder - Talking Book.flac" WAVE
TRACK 01 AUDIO
TITLE "You Are The Sunshine Of My Life"
PERFORMER "Stevie Wonder"
INDEX 00 00:00:00
INDEX 01 00:00:33
TRACK 02 AUDIO
TITLE "Maybe Your Baby"
PERFORMER "Stevie Wonder"
INDEX 00 02:59:30
INDEX 01 02:59:50
TRACK 03 AUDIO
TITLE "You And I"
PERFORMER "Stevie Wonder"
INDEX 01 09:50:60
TRACK 04 AUDIO
TITLE "Tuesday Heartbreak"
PERFORMER "Stevie Wonder"
INDEX 01 14:28:58
TRACK 05 AUDIO
TITLE "You've Got It Bad Girl"
PERFORMER "Stevie Wonder"
INDEX 01 17:31:20
TRACK 06 AUDIO
TITLE "Superstition"
PERFORMER "Stevie Wonder"
INDEX 00 22:27:43
INDEX 01 22:28:18
TRACK 07 AUDIO
TITLE "Big Brother"
PERFORMER "Stevie Wonder"
INDEX 01 26:54:25
TRACK 08 AUDIO
TITLE "Blame It On The Sun"
PERFORMER "Stevie Wonder"
INDEX 01 30:28:03
TRACK 09 AUDIO
TITLE "Lookin' For Another Pure Love"
PERFORMER "Stevie Wonder"
INDEX 01 33:54:13
TRACK 10 AUDIO
TITLE "I Believe (When I Fall In Love It Will Be Forever )"
PERFORMER "Stevie Wonder"
INDEX 01 38:37:73
 
DR Log
Exact Audio Copy V1.0 beta 3 from 29. August 2011
EAC extraction logfile from 4. March 2017, 8:18
Stevie Wonder / Talking Book
Used drive : TSSTcorpCDDVDW SH-216DB Adapter: 0 ID: 0
Read mode : Secure
Utilize accurate stream : Yes
Defeat audio cache : Yes
Make use of C2 pointers : No
Read offset correction : 6
Overread into Lead-In and Lead-Out : No
Fill up missing offset samples with silence : Yes
Delete leading and trailing silent blocks : No
Null samples used in CRC calculations : Yes
Used interface : Native Win32 interface for Win NT & 2000
Used output format : User Defined Encoder
Selected bitrate : 1024 kBit/s
Quality : High
Add ID3 tag : No
Command line compressor : C:\Program Files (x86)\Exact Audio Copy\Flac\flac.exe
Additional command line options : -V -8 -T "Date=%year%" -T "Genre=%genre%" %source%
TOC of the extracted CD
Track | Start | Length | Start sector | End sector
---------------------------------------------------------
1 | 0:00.33 | 2:59.17 | 33 | 13474
2 | 2:59.50 | 6:51.10 | 13475 | 44309
3 | 9:50.60 | 4:37.73 | 44310 | 65157
4 | 14:28.58 | 3:02.37 | 65158 | 78844
5 | 17:31.20 | 4:56.73 | 78845 | 101117
6 | 22:28.18 | 4:26.07 | 101118 | 121074
7 | 26:54.25 | 3:33.53 | 121075 | 137102
8 | 30:28.03 | 3:26.10 | 137103 | 152562
9 | 33:54.13 | 4:43.60 | 152563 | 173847
10 | 38:37.73 | 4:52.70 | 173848 | 195817
Range status and errors
Selected range
Filename L:\Private\My Audio Ripps\ CD - RIPS\Stevie Wonder - Talking Book\Stevie Wonder - Talking Book.wav
Peak level 100.0 %
Extraction speed 2.4 X
Range quality 100.0 %
Test CRC 3CD12F7B
Copy CRC 3CD12F7B
Copy OK
No errors occurred
AccurateRip summary
Track 1 accurately ripped (confidence 7) [00F48E56] (AR v2)
Track 2 accurately ripped (confidence 6) [8FEBC9D8] (AR v2)
Track 3 accurately ripped (confidence 6) [CC7E851F] (AR v2)
Track 4 accurately ripped (confidence 6) [9B69E8D5] (AR v2)
Track 5 accurately ripped (confidence 7) [53D41008] (AR v2)
Track 6 accurately ripped (confidence 7) [AE4F26D9] (AR v2)
Track 7 accurately ripped (confidence 7) [DFF56D8A] (AR v2)
Track 8 accurately ripped (confidence 7) [BDC261AF] (AR v2)
Track 9 accurately ripped (confidence 7) [A5944417] (AR v2)
Track 10 accurately ripped (confidence 6) [690B2532] (AR v2)
All tracks accurately ripped
End of status report
==== Log checksum 957742144AD348A89C6FE773B4EACB166EE6FCB2329510F622459B464548EEE3 ====
 
Об альбоме (сборнике)
Series: 'E Musica
Приватный:
Нет (DHT включён)
Размер:
259.40 Мб (272,005,057 байт) » файлов: 10
Участники:
0 раздают, 0 качают (0 участников всего)
Внешние участники:
27 раздают, 9 качают (36 участников всего) [ Обновить ]
Есть вопросы - пишите личное сообщение пользователю M0p94ok.
13:13
84
Нет комментариев. Ваш будет первым!