Поиск

(Soul, R&B) [CD] James Brown - In The Jungle Groove - 1986, FLAC (tracks+.cue), lossless

(Soul, R&B) [CD] James Brown - In The Jungle Groove - 1986, FLAC (tracks+.cue), lossless
Треклист:
James Brown - In The Jungle Groove Жанр: Soul, R&B
Носитель: CD
Год издания: 1986
Издатель (лейбл): Polydor
Номер по каталогу: 829 624-2
Аудиокодек: FLAC (*.flac)
Тип рипа: tracks+.cue
Битрейт аудио: lossless
Продолжительность: 63:43
Источник (релизер): TestTickles
Наличие сканов в содержимом раздачи: да
Треклист:
01. It's A New Day (6:23)
02. Funky Drummer (9:15)
03. Give It Up Or Turnit A Loose (Remix) (6:12)
04. I Got To Move (7:18)
05. Funky Drummer (Bonus Beat Reprise) (3:00)
06. Talkin' Loud & Sayin' Nothing (Remix) (7:45)
07. Get Up, Get Into It & Get Involved (Mono) (7:06)
08. Soul Power (Re-Edit) (Mono) (8:03)
09. Hot Pants (She Got To Use What She Got To Get What She Wants) (8:41)
 
 
Об альбоме (сборнике)
In The Jungle Groove is a 1986 compilation album by American singer James Brown. This was one of the first James Brown albums to be released on CD and features certain edits of songs that would become important as ingredients for hip-hop producers. This was released by Polydor Records.
 
 
Лог создания рипа
Exact Audio Copy V1.1 from 23. June 2015
EAC extraction logfile from 25. February 2017, 16:01
James Brown / In The Jungle Groove
Used drive : TEAC DVD-ROM DV-28SW Adapter: 1 ID: 0
Read mode : Secure
Utilize accurate stream : Yes
Defeat audio cache : Yes
Make use of C2 pointers : No
Read offset correction : 6
Overread into Lead-In and Lead-Out : No
Fill up missing offset samples with silence : Yes
Delete leading and trailing silent blocks : No
Null samples used in CRC calculations : Yes
Used interface : Native Win32 interface for Win NT & 2000
Gap handling : Appended to previous track
Used output format : Internal WAV Routines
Sample format : 44.100 Hz; 16 Bit; Stereo
TOC of the extracted CD
Track | Start | Length | Start sector | End sector
---------------------------------------------------------
1 | 0:00.33 | 6:23.07 | 33 | 28764
2 | 6:23.40 | 9:15.13 | 28765 | 70402
3 | 15:38.53 | 6:12.15 | 70403 | 98317
4 | 21:50.68 | 7:18.17 | 98318 | 131184
5 | 29:09.10 | 2:59.43 | 131185 | 144652
6 | 32:08.53 | 7:45.20 | 144653 | 179547
7 | 39:53.73 | 7:05.65 | 179548 | 211487
8 | 46:59.63 | 8:02.47 | 211488 | 247684
9 | 55:02.35 | 8:41.35 | 247685 | 286794
Track 1
Filename C:\My Documents\My FLAC\James Brown - In The Jungle Groove (1986) [FLAC] {Polydor}\01 - It's A New Day.wav
Pre-gap length 0:00:02.33
Peak level 69.9 %
Extraction speed 1.2 X
Track quality 99.9 %
Test CRC 6979141A
Copy CRC 6979141A
Accurately ripped (confidence 20) [4188C816] (AR v2)
Copy OK
Track 2
Filename C:\My Documents\My FLAC\James Brown - In The Jungle Groove (1986) [FLAC] {Polydor}\02 - Funky Drummer.wav
Pre-gap length 0:00:03.67
Peak level 94.4 %
Extraction speed 1.5 X
Track quality 100.0 %
Test CRC 6D82C28C
Copy CRC 6D82C28C
Accurately ripped (confidence 19) [89309E62] (AR v2)
Copy OK
Track 3
Filename C:\My Documents\My FLAC\James Brown - In The Jungle Groove (1986) [FLAC] {Polydor}\03 - Give It Up Or Turnit A Loose (Remix).wav
Pre-gap length 0:00:01.48
Peak level 91.0 %
Extraction speed 1.4 X
Track quality 99.9 %
Test CRC 6AF08D61
Copy CRC 6AF08D61
Accurately ripped (confidence 21) [E9DE469E] (AR v2)
Copy OK
Track 4
Filename C:\My Documents\My FLAC\James Brown - In The Jungle Groove (1986) [FLAC] {Polydor}\04 - I Got To Move.wav
Pre-gap length 0:00:02.00
Peak level 81.7 %
Extraction speed 1.7 X
Track quality 99.9 %
Test CRC 2C8C37DC
Copy CRC 2C8C37DC
Accurately ripped (confidence 21) [11D60D01] (AR v2)
Copy OK
Track 5
Filename C:\My Documents\My FLAC\James Brown - In The Jungle Groove (1986) [FLAC] {Polydor}\05 - Funky Drummer (Bonus Beat Reprise).wav
Pre-gap length 0:00:03.04
Peak level 73.6 %
Extraction speed 1.5 X
Track quality 100.0 %
Test CRC D442CB13
Copy CRC D442CB13
Accurately ripped (confidence 19) [E46B4C99] (AR v2)
Copy OK
Track 6
Filename C:\My Documents\My FLAC\James Brown - In The Jungle Groove (1986) [FLAC] {Polydor}\06 - Talkin' Loud & Sayin' Nothing (Remix).wav
Pre-gap length 0:00:03.03
Peak level 75.3 %
Extraction speed 2.0 X
Track quality 100.0 %
Test CRC E8EBC764
Copy CRC E8EBC764
Accurately ripped (confidence 20) [C2623034] (AR v2)
Copy OK
Track 7
Filename C:\My Documents\My FLAC\James Brown - In The Jungle Groove (1986) [FLAC] {Polydor}\07 - Get Up, Get Into It & Get Involved (Mono).wav
Pre-gap length 0:00:02.25
Peak level 60.2 %
Extraction speed 2.2 X
Track quality 100.0 %
Test CRC 04FADC67
Copy CRC 04FADC67
Accurately ripped (confidence 20) [D89DE4BF] (AR v2)
Copy OK
Track 8
Filename C:\My Documents\My FLAC\James Brown - In The Jungle Groove (1986) [FLAC] {Polydor}\08 - Soul Power (Re-Edit) (Mono).wav
Peak level 81.7 %
Extraction speed 0.9 X
Track quality 100.0 %
Test CRC B1FA63BB
Copy CRC B1FA63BB
Accurately ripped (confidence 20) [6C23377A] (AR v2)
Copy OK
Track 9
Filename C:\My Documents\My FLAC\James Brown - In The Jungle Groove (1986) [FLAC] {Polydor}\09 - Hot Pants (She Got To Use What She Got To Get What She Wants).wav
Pre-gap length 0:00:01.47
Peak level 69.9 %
Extraction speed 2.5 X
Track quality 100.0 %
Test CRC 629E74A5
Copy CRC 629E74A5
Accurately ripped (confidence 20) [2A6C5D2A] (AR v2)
Copy OK
All tracks accurately ripped
No errors occurred
End of status report
---- CUETools DB Plugin V2.1.6
[CTDB TOCID: GBK5D_yQMYM38q2OcttGXyf.iwA-] found
Submit result: GBK5D_yQMYM38q2OcttGXyf.iwA- has been confirmed
Track | CTDB Status
1 | (15/18) Accurately ripped
2 | (15/18) Accurately ripped
3 | (15/18) Accurately ripped
4 | (15/18) Accurately ripped
5 | (15/18) Accurately ripped
6 | (16/18) Accurately ripped
7 | (15/18) Accurately ripped
8 | (15/18) Accurately ripped
9 | (15/18) Accurately ripped
==== Log checksum 6F91A56EC1C7A44672A5B252A3DC77728CFEE0E407A01CB2C31B048FD43DA0CA ====
 
Содержание индексной карты (.CUE)
REM GENRE Soul
REM DATE 1986
REM DISCID 6B0EEF09
REM COMMENT "ExactAudioCopy v1.1"
CATALOG 0042282962423
PERFORMER "James Brown"
TITLE "In The Jungle Groove"
FILE "01 - It's A New Day.wav" WAVE
TRACK 01 AUDIO
TITLE "It's A New Day"
PERFORMER "James Brown"
ISRC USF068600070
PREGAP 00:00:33
INDEX 01 00:00:00
TRACK 02 AUDIO
TITLE "Funky Drummer"
PERFORMER "James Brown"
ISRC USF068600080
INDEX 00 06:19:15
FILE "02 - Funky Drummer.wav" WAVE
INDEX 01 00:00:00
TRACK 03 AUDIO
TITLE "Give It Up Or Turnit A Loose (Remix)"
PERFORMER "James Brown"
ISRC USF068600090
INDEX 00 09:13:40
FILE "03 - Give It Up Or Turnit A Loose (Remix).wav" WAVE
INDEX 01 00:00:00
TRACK 04 AUDIO
TITLE "I Got To Move"
PERFORMER "James Brown"
ISRC USF068600100
INDEX 00 06:10:15
FILE "04 - I Got To Move.wav" WAVE
INDEX 01 00:00:00
TRACK 05 AUDIO
TITLE "Funky Drummer (Bonus Beat Reprise)"
PERFORMER "James Brown"
ISRC USF068600110
INDEX 00 07:15:13
FILE "05 - Funky Drummer (Bonus Beat Reprise).wav" WAVE
INDEX 01 00:00:00
TRACK 06 AUDIO
TITLE "Talkin' Loud & Sayin' Nothing (Remix)"
PERFORMER "James Brown"
ISRC USF068600120
INDEX 00 02:56:40
FILE "06 - Talkin' Loud & Sayin' Nothing (Remix).wav" WAVE
INDEX 01 00:00:00
TRACK 07 AUDIO
TITLE "Get Up, Get Into It & Get Involved (Mono)"
PERFORMER "James Brown"
ISRC USF068600130
INDEX 00 07:42:70
FILE "07 - Get Up, Get Into It & Get Involved (Mono).wav" WAVE
INDEX 01 00:00:00
FILE "08 - Soul Power (Re-Edit) (Mono).wav" WAVE
TRACK 08 AUDIO
TITLE "Soul Power (Re-Edit) (Mono)"
PERFORMER "James Brown"
ISRC USF068600140
INDEX 01 00:00:00
TRACK 09 AUDIO
TITLE "Hot Pants (She Got To Use What She Got To Get What She Wants)"
PERFORMER "James Brown"
ISRC USF068600150
INDEX 00 08:01:00
FILE "09 - Hot Pants (She Got To Use What She Got To Get What She Wants).wav" WAVE
INDEX 01 00:00:00
Приватный:
Нет (DHT включён)
Размер:
356.19 Мб (373,492,553 байт) » файлов: 21
Участники:
0 раздают, 0 качают (0 участников всего)
Внешние участники:
7 раздают, 2 качают (9 участников всего) [ Обновить ]
No seeders - write a personal message to user M0p94ok. Нет сидеров - пишите личное сообщение пользователю M0p94ok.
13:15
215
Нет комментариев. Ваш будет первым!