Поиск

(Jazz-Funk, Fusion, Modal Music) [CD] The Al Williams Quintet Plus One - Sandance - 1976 (2012 Japan Mini-LP Edition), FLAC (tracks+.cue), lossless

(Jazz-Funk, Fusion, Modal Music) [CD] The Al Williams Quintet Plus One - Sandance - 1976 (2012 Japan Mini-LP Edition), FLAC (tracks+.cue), lossless
Треклист:
The Al Williams Quintet Plus One - Sandance
Жанр: Jazz-Funk, Fusion, Modal Music
Носитель: CD
Страна-производитель диска (релиза): Япония
Год издания: 2012
Издатель (лейбл): SHOUT! Productions (Deep Jazz Reality)
Номер по каталогу: SHOUT-243
Страна исполнителя (группы): США
Аудиокодек: FLAC (*.flac)
Тип рипа: tracks+.cue
Битрейт аудио: lossless
Продолжительность: 49:43
Источник (релизер): wikieup (what)
Наличие сканов в содержимом раздачи: нет
Треклист:
01. Sandance (Williams) - 2:39
02. Eternal Question (Dickerson) - 8:10
03. Love Spring (Smith) - 6:16
04. Erik's Tune (Owens) - 7:36
05. Desert Song (Dickerson) - 5:48
06. Good-Bye Centennial (Owens) - 4:26
07. This Masquerade (Russell) - 4:03
08. Impressions (Coltrane) - 10:45
Состав:
Al Williams - drums
Nolan Smith - trumpet
Charles Owens - tenor saxophone, flute
Dwight Dickerson - piano
Leroy Vinnegar - bass
Victor Cardenas - percussion
Recorded live at Belmont Shore, CA on June 10-12, 1976.
 
Лог создания рипа
Exact Audio Copy V1.0 beta 3 from 29. August 2011
EAC extraction logfile from 3. December 2012, 15:59
Al Williams Quintet Plus One / Sandance [2012 Reissue]
Used drive : TSSTcorpDVD-ROM TS-U333B Adapter: 0 ID: 1
Read mode : Secure
Utilize accurate stream : Yes
Defeat audio cache : Yes
Make use of C2 pointers : No
Read offset correction : 6
Overread into Lead-In and Lead-Out : No
Fill up missing offset samples with silence : Yes
Delete leading and trailing silent blocks : No
Null samples used in CRC calculations : Yes
Used interface : Native Win32 interface for Win NT & 2000
Gap handling : Appended to previous track
Used output format : User Defined Encoder
Selected bitrate : 1024 kBit/s
Quality : High
Add ID3 tag : No
Command line compressor : C:\Program Files\Exact Audio Copy\Flac\flac.exe
Additional command line options : -8 -V -T "ARTIST=%artist%" -T "TITLE=%title%" -T "ALBUM=%albumtitle%" -T "DATE=%year%" -T "TRACKNUMBER=%tracknr%" -T "GENRE=%genre%" -T "PERFORMER=%albuminterpret%" -T "COMPOSER=%composer%" %haslyrics%--tag-from-file=LYRICS="%lyricsfile%"%haslyrics% -T "ALBUMARTIST=%albumartist%" -T "DISCNUMBER=%cdnumber%" -T "TOTALDISCS=%totalcds%" -T "TOTALTRACKS=%numtracks%" -T "COMMENT=%comment%" %source% -o %dest%
TOC of the extracted CD
Track | Start | Length | Start sector | End sector
---------------------------------------------------------
1 | 0:00.00 | 2:38.57 | 0 | 11906
2 | 2:38.57 | 8:09.60 | 11907 | 48641
3 | 10:48.42 | 6:16.13 | 48642 | 76854
4 | 17:04.55 | 7:36.25 | 76855 | 111079
5 | 24:41.05 | 5:48.14 | 111080 | 137193
6 | 30:29.19 | 4:26.16 | 137194 | 157159
7 | 34:55.35 | 4:03.03 | 157160 | 175387
8 | 38:58.38 | 10:44.67 | 175388 | 223754
Track 1
Filename C:\EAC Rips\01 - Sandance.wav
Pre-gap length 0:00:02.00
Peak level 99.6 %
Extraction speed 2.5 X
Track quality 100.0 %
Test CRC 83065573
Copy CRC 83065573
Track not present in AccurateRip database
Copy OK
Track 2
Filename C:\EAC Rips\02 - Eternal Question.wav
Pre-gap length 0:00:03.10
Peak level 95.0 %
Extraction speed 3.2 X
Track quality 100.0 %
Test CRC C6018A1A
Copy CRC C6018A1A
Track not present in AccurateRip database
Copy OK
Track 3
Filename C:\EAC Rips\03 - Love Spring.wav
Pre-gap length 0:00:03.77
Peak level 99.2 %
Extraction speed 3.2 X
Track quality 99.9 %
Test CRC F3C314DF
Copy CRC F3C314DF
Track not present in AccurateRip database
Copy OK
Track 4
Filename C:\EAC Rips\04 - Erik's Tune.wav
Pre-gap length 0:00:03.37
Peak level 100.0 %
Extraction speed 4.1 X
Track quality 100.0 %
Test CRC 007BA8EE
Copy CRC 007BA8EE
Track not present in AccurateRip database
Copy OK
Track 5
Filename C:\EAC Rips\05 - Desert Song.wav
Pre-gap length 0:00:02.66
Peak level 99.5 %
Extraction speed 4.3 X
Track quality 100.0 %
Test CRC 534FD176
Copy CRC 534FD176
Track not present in AccurateRip database
Copy OK
Track 6
Filename C:\EAC Rips\06 - Good-Bye Centennial.wav
Pre-gap length 0:00:03.73
Peak level 99.4 %
Extraction speed 3.6 X
Track quality 99.9 %
Test CRC C35D3AFD
Copy CRC C35D3AFD
Track not present in AccurateRip database
Copy OK
Track 7
Filename C:\EAC Rips\07 - This Masquerade.wav
Pre-gap length 0:00:01.56
Peak level 100.0 %
Extraction speed 3.7 X
Track quality 99.9 %
Test CRC FFC8A18D
Copy CRC FFC8A18D
Track not present in AccurateRip database
Copy OK
Track 8
Filename C:\EAC Rips\08 - Impressions.wav
Pre-gap length 0:00:02.66
Peak level 99.6 %
Extraction speed 5.2 X
Track quality 100.0 %
Test CRC BD6FC233
Copy CRC BD6FC233
Track not present in AccurateRip database
Copy OK
None of the tracks are present in the AccurateRip database
No errors occurred
End of status report
==== Log checksum C5C06E3EC16285EF1773D60B57748687F97E84AE0F29ADA654B496B1594D39B0 ====
 
Содержание индексной карты (.CUE)
REM GENRE Jazz
REM DATE 1976
REM DISCID 550BA708
REM COMMENT "ExactAudioCopy v1.0b3"
PERFORMER "Al Williams"
TITLE "Sandance"
FILE "01 - Sandance.wav" WAVE
TRACK 01 AUDIO
TITLE "Sandance"
PERFORMER "Al Williams"
INDEX 01 00:00:00
TRACK 02 AUDIO
TITLE "Eternal Question"
PERFORMER "Al Williams"
INDEX 00 02:35:49
FILE "02 - Eternal Question.wav" WAVE
INDEX 01 00:00:00
TRACK 03 AUDIO
TITLE "Love Spring"
PERFORMER "Al Williams"
INDEX 00 08:06:02
FILE "03 - Love Spring.wav" WAVE
INDEX 01 00:00:00
TRACK 04 AUDIO
TITLE "Erik's Tune"
PERFORMER "Al Williams"
INDEX 00 06:12:60
FILE "04 - Erik's Tune.wav" WAVE
INDEX 01 00:00:00
TRACK 05 AUDIO
TITLE "Desert Song"
PERFORMER "Al Williams"
INDEX 00 07:33:50
FILE "05 - Desert Song.wav" WAVE
INDEX 01 00:00:00
TRACK 06 AUDIO
TITLE "Good-Bye Centennial"
PERFORMER "Al Williams"
INDEX 00 05:44:34
FILE "06 - Good-Bye Centennial.wav" WAVE
INDEX 01 00:00:00
TRACK 07 AUDIO
TITLE "This Masquerade"
PERFORMER "Al Williams"
INDEX 00 04:24:49
FILE "07 - This Masquerade.wav" WAVE
INDEX 01 00:00:00
TRACK 08 AUDIO
TITLE "Impressions"
PERFORMER "Al Williams"
INDEX 00 04:00:28
FILE "08 - Impressions.wav" WAVE
INDEX 01 00:00:00
 
Об альбоме (сборнике)
A gem of a record from the Cali scene of the 70s – a set that brings together all the best soulful elements of the LA indie scene of the time – but with an edge that's a lot more forceful than any bigger label jazz of the time! There's a solid punch to the record right from the start – wicked drums from leader Al Williams, and massive bass from Leroy Vinnegar – who's at his funky best, and really gets the session going right from the start! Dwight Dickerson brings in some spiritual undercurrents on piano, as does Charles Owens on tenor – playing here in some of his most open, spiritual styles ever. Trumpeter Nolan Smith adds a nice bite to the set – and the album's filled with some original numbers that have kept us digging this one for years! Titles include "Eternal Question", "Desert Song", "Sandance", "This Masquerade", "Erik's Tune", and a version of "Impressions".
Приватный:
Нет (DHT включён)
Размер:
310.08 Мб (325,138,560 байт) » файлов: 16
Участники:
0 раздают, 0 качают (0 участников всего)
Внешние участники:
2 раздают, 1 качают (3 участников всего) [ Обновить ]
Есть вопросы - пишите личное сообщение пользователю M0p94ok.
05:43
54
Нет комментариев. Ваш будет первым!