Поиск

(Funk, Soul) [CD] The Frank Derrick Total Experience - You Betcha! - 1974 (2006 Japan Edition), FLAC (tracks+.cue), lossless

(Funk, Soul) [CD] The Frank Derrick Total Experience - You Betcha! - 1974 (2006 Japan Edition), FLAC (tracks+.cue), lossless
Треклист:
The Frank Derrick Total Experience - You Betcha!
Жанр: Funk, Soul
Носитель: CD
Страна-производитель диска (релиза): Япония
Год издания: 2006
Издатель (лейбл): P-Vine Records (Deep Jazz Reality)
Номер по каталогу: PCD-23806
Страна исполнителя (группы): США
Аудиокодек: FLAC (*.flac)
Тип рипа: tracks+.cue
Битрейт аудио: lossless
Продолжительность: 42:18
Источник (релизер): wikieup (what)
Наличие сканов в содержимом раздачи: нет
Треклист:
01. Socialite Suburbanite (Derrick) - 6:02
02. You Betcha! (Derrick) - 3:04
03. Inspiration (Derrick) - 3:56
04. Good Evenin' Rev (Derrick) - 6:48
05. Jazz Scene (Derrick) - 3:45
06. No Jive (Derrick) - 5:08
07. Poor Man's Blues (Derrick) - 5:09
08. Variations in Jazz (Derrick) - 8:26
Состав:
Frank Derrick III - drums
Tim Galloway, Sanden Joren, Buddy Brooks, Jimmy Doss - trumpet
Edwin Williams, Jim Sullivan, Bill Petties - trombone
Frank Derrick, Jr., Bill Payne, Don Sturner, Charles H. Washington, Jr., Kenneth James - saxophone
Bob Jones - keyboards
Leo Pochinkas, Jr. - guitar
Jeff Simon - bass
Recorded live at Fiddlers, Chicago, IL in 1974.
 
Лог создания рипа
Exact Audio Copy V1.0 beta 3 from 29. August 2011
EAC extraction logfile from 30. May 2013, 10:08
The Frank Derrick Total Experience / You Betcha! [2006 Reissue]
Used drive : TSSTcorpDVD-ROM TS-U333B Adapter: 0 ID: 1
Read mode : Secure
Utilize accurate stream : Yes
Defeat audio cache : Yes
Make use of C2 pointers : No
Read offset correction : 6
Overread into Lead-In and Lead-Out : No
Fill up missing offset samples with silence : Yes
Delete leading and trailing silent blocks : No
Null samples used in CRC calculations : Yes
Used interface : Native Win32 interface for Win NT & 2000
Gap handling : Appended to previous track
Used output format : User Defined Encoder
Selected bitrate : 1024 kBit/s
Quality : High
Add ID3 tag : No
Command line compressor : C:\Program Files\Exact Audio Copy\Flac\flac.exe
Additional command line options : -8 -V -T "ARTIST=%artist%" -T "TITLE=%title%" -T "ALBUM=%albumtitle%" -T "DATE=%year%" -T "TRACKNUMBER=%tracknr%" -T "GENRE=%genre%" -T "PERFORMER=%albuminterpret%" -T "COMPOSER=%composer%" %haslyrics%--tag-from-file=LYRICS="%lyricsfile%"%haslyrics% -T "ALBUMARTIST=%albumartist%" -T "DISCNUMBER=%cdnumber%" -T "TOTALDISCS=%totalcds%" -T "TOTALTRACKS=%numtracks%" -T "COMMENT=%comment%" %source% -o %dest%
TOC of the extracted CD
Track | Start | Length | Start sector | End sector
---------------------------------------------------------
1 | 0:00.00 | 6:01.55 | 0 | 27129
2 | 6:01.55 | 3:03.51 | 27130 | 40905
3 | 9:05.31 | 3:56.12 | 40906 | 58617
4 | 13:01.43 | 6:47.71 | 58618 | 89213
5 | 19:49.39 | 3:45.00 | 89214 | 106088
6 | 23:34.39 | 5:08.12 | 106089 | 129200
7 | 28:42.51 | 5:09.15 | 129201 | 152390
8 | 33:51.66 | 8:26.08 | 152391 | 190348
Track 1
Filename C:\EAC Rips\01 - Socialite Suburbanite.wav
Pre-gap length 0:00:02.00
Peak level 97.9 %
Extraction speed 2.7 X
Track quality 100.0 %
Test CRC D9B386D7
Copy CRC D9B386D7
Track not present in AccurateRip database
Copy OK
Track 2
Filename C:\EAC Rips\02 - You Betcha!.wav
Peak level 99.4 %
Extraction speed 2.8 X
Track quality 100.0 %
Test CRC 4D18C24C
Copy CRC 4D18C24C
Track not present in AccurateRip database
Copy OK
Track 3
Filename C:\EAC Rips\03 - Inspiration.wav
Peak level 99.4 %
Extraction speed 3.1 X
Track quality 100.0 %
Test CRC E43B41BD
Copy CRC E43B41BD
Track not present in AccurateRip database
Copy OK
Track 4
Filename C:\EAC Rips\04 - Good Evenin' Rev.wav
Peak level 99.4 %
Extraction speed 3.6 X
Track quality 100.0 %
Test CRC 21EDDC8C
Copy CRC 21EDDC8C
Track not present in AccurateRip database
Copy OK
Track 5
Filename C:\EAC Rips\05 - Jazz Scene.wav
Pre-gap length 0:00:01.10
Peak level 99.4 %
Extraction speed 3.6 X
Track quality 100.0 %
Test CRC AE0EE732
Copy CRC AE0EE732
Track not present in AccurateRip database
Copy OK
Track 6
Filename C:\EAC Rips\06 - No Jive.wav
Peak level 97.8 %
Extraction speed 4.0 X
Track quality 100.0 %
Test CRC B268110E
Copy CRC B268110E
Track not present in AccurateRip database
Copy OK
Track 7
Filename C:\EAC Rips\07 - Poor Man's Blues.wav
Peak level 99.4 %
Extraction speed 4.2 X
Track quality 100.0 %
Test CRC 6C17F250
Copy CRC 6C17F250
Track not present in AccurateRip database
Copy OK
Track 8
Filename C:\EAC Rips\08 - Variations In Jazz.wav
Peak level 99.4 %
Extraction speed 4.7 X
Track quality 100.0 %
Test CRC 636822BF
Copy CRC 636822BF
Track not present in AccurateRip database
Copy OK
None of the tracks are present in the AccurateRip database
No errors occurred
End of status report
==== Log checksum 18FAFB70D3F360999E087F95B614EC04BE6FFD92D37D1BEAAF825850E99B9ABD ====
 
Содержание индексной карты (.CUE)
REM GENRE Jazz
REM DATE 1974
REM DISCID 5E09E908
REM COMMENT "ExactAudioCopy v1.0b3"
PERFORMER "The Frank Derrick Total Experience"
TITLE "You Betcha!"
FILE "01 - Socialite Suburbanite.wav" WAVE
TRACK 01 AUDIO
TITLE "Socialite Suburbanite"
PERFORMER "The Frank Derrick Total Experience"
INDEX 01 00:00:00
FILE "02 - You Betcha!.wav" WAVE
TRACK 02 AUDIO
TITLE "You Betcha!"
PERFORMER "The Frank Derrick Total Experience"
INDEX 01 00:00:00
FILE "03 - Inspiration.wav" WAVE
TRACK 03 AUDIO
TITLE "Inspiration"
PERFORMER "The Frank Derrick Total Experience"
INDEX 01 00:00:00
FILE "04 - Good Evenin' Rev.wav" WAVE
TRACK 04 AUDIO
TITLE "Good Evenin' Rev"
PERFORMER "The Frank Derrick Total Experience"
INDEX 01 00:00:00
TRACK 05 AUDIO
TITLE "Jazz Scene"
PERFORMER "The Frank Derrick Total Experience"
INDEX 00 06:46:63
FILE "05 - Jazz Scene.wav" WAVE
INDEX 01 00:00:00
FILE "06 - No Jive.wav" WAVE
TRACK 06 AUDIO
TITLE "No Jive"
PERFORMER "The Frank Derrick Total Experience"
INDEX 01 00:00:00
FILE "07 - Poor Man's Blues.wav" WAVE
TRACK 07 AUDIO
TITLE "Poor Man's Blues"
PERFORMER "The Frank Derrick Total Experience"
INDEX 01 00:00:00
FILE "08 - Variations in Jazz.wav" WAVE
TRACK 08 AUDIO
TITLE "Variations in Jazz"
PERFORMER "The Frank Derrick Total Experience"
INDEX 01 00:00:00
 
Об альбоме (сборнике)
Talent Discovery is something the layman very seldom has a chance to experience and voila!.......... Here is your chance to discover a dynamite artist still in the early stage of his career. This is not to say he is without experience or resource- to the contrary. Frank Derrick III started playing drums at the age of ten, with teachers that included the late Oliver Coleman, Roy C. Knapp, and Haskell Harr, while being inspired by many great drummers such as Grady Tate and Buddy Rich.
In Addition to leading The Frank Derrick Total Experience heard on this recording, which incidentally Frank put together at the age of nineteen, he has worked wit Clark Terry, Stevie Wonder, Les McCann, Quincy Jones, Ray Brown, Eldee Young, The Four Tops, Jerry Butler, Art Hodes, Donny Hathaway and Roberta Flack. Frank Strives to be an all around musician, having done classical work with the Chicago Chamber Orchestra, Mid America Orchestra and others.
Frank was born in Chicago in 1950, into an exceptional musical environment. His Father, Frank Derrick Jr., is a very active professional musician-having worked with such notables as Duke Ellington, Earl "Fatha" Hines and many others. At present, The elder Frank is playing with this group and sharing the arranging duties with his son. His mother Geraldine Derrick, was also an active reed player who worked with the late Walter Dyett and many other leading Chicagoland bands.
This Album is a combination of some of the finest Chicago musicians performing live at Fiddlers where the band also plays regular Sunday night session. in this album you'll be able to hear and feel the fire and enthusiasm of these exceptional musicians.
For Frank Derrick III, this is his first recording under his own name. For you, the listener, a chance to discover today, a drummer and an artist that's on his way!...........You Betcha!
Приватный:
Нет (DHT включён)
Размер:
264.90 Мб (277,772,134 байт) » файлов: 15
Участники:
0 раздают, 0 качают (0 участников всего)
Внешние участники:
3 раздают, 1 качают (4 участников всего) [ Обновить ]
Есть вопросы - пишите личное сообщение пользователю M0p94ok.
05:42
57
Нет комментариев. Ваш будет первым!