Поиск

(Soul-Jazz, Modal Music) [CD] Coalition - Birth - 1978 (2013 Japan Mini-LP Edition), FLAC (tracks+.cue), lossless

(Soul-Jazz, Modal Music) [CD] Coalition - Birth - 1978 (2013 Japan Mini-LP Edition), FLAC (tracks+.cue), lossless
Треклист:
Coalition - Birth
Жанр: Soul-Jazz, Modal Music
Носитель: CD
Страна-производитель диска (релиза): Япония
Год издания: 2013
Издатель (лейбл): SHOUT! Productions (Deep Jazz Reality)
Номер по каталогу: SHOUT-248
Страна исполнителя (группы): США
Аудиокодек: FLAC (*.flac)
Тип рипа: tracks+.cue
Битрейт аудио: lossless
Продолжительность: 43:01
Источник (релизер): flossity (what)
Наличие сканов в содержимом раздачи: нет
Треклист:
01. Marionette (Branco) - 11:17
02. Thinking of You (Falcone-Collins) - 6:43
03. Song to My Lady (Branco) - 1:31
04. Bill's Samba (Collins) - 4:39
05. Kenya's Horizon (James) - 11:47
06. The Downer (Falcone) - 7:04
Состав:
Tony Branco - piano
Mike Falcone - tenor saxophone, flute
Bill Collins - bass, vocals
Dwight James - drums
Recorded at Bob Cohen Recording Studios, Philadelphia, PA in 1978.
 
Лог создания рипа
X Lossless Decoder version 20141129 (148.1)
XLD extraction logfile from 2015-02-28 17:05:58 -0800
Coalition / Birth
Used drive : TSSTcorp BDDVDW SE-506AB (revision TS01)
Media type : Pressed CD
Ripper mode : XLD Secure Ripper
Disable audio cache : OK for the drive with a cache less than 1375KiB
Make use of C2 pointers : NO
Read offset correction : 6
Max retry count : 100
Gap status : Analyzed, Appended (except HTOA)
TOC of the extracted CD
Track | Start | Length | Start sector | End sector
---------------------------------------------------------
1 | 00:00:00 | 11:16:39 | 0 | 50738
2 | 11:16:39 | 06:42:70 | 50739 | 80958
3 | 17:59:34 | 01:30:55 | 80959 | 87763
4 | 19:30:14 | 04:39:30 | 87764 | 108718
5 | 24:09:44 | 11:46:50 | 108719 | 161718
6 | 35:56:19 | 07:03:38 | 161719 | 193481
AccurateRip Summary
Disc not found in AccurateRip DB.
All Tracks
Album gain : -4.91 dB
Peak : 1.000000
Statistics
Read error : 0
Jitter error (maybe fixed) : 0
Retry sector count : 498
Damaged sector count : 0
Track 01
Filename : /Applications/Rips/Coalition - Birth (1978) [FLAC]/01 - Marionette.flac
Pre-gap length : 00:02:00
Track gain : -4.36 dB
Peak : 1.000000
CRC32 hash (test run) : F466F95A
CRC32 hash : F466F95A
CRC32 hash (skip zero) : 7B1F2878
AccurateRip v1 signature : 206E102C
AccurateRip v2 signature : A4FB0917
->Track not present in AccurateRip database.
Statistics
Read error : 0
Jitter error (maybe fixed) : 0
Retry sector count : 1
Damaged sector count : 0
Track 02
Filename : /Applications/Rips/Coalition - Birth (1978) [FLAC]/02 - Thinking Of You.flac
Pre-gap length : 00:03:00
Track gain : -2.04 dB
Peak : 0.991669
CRC32 hash (test run) : DE528848
CRC32 hash : DE528848
CRC32 hash (skip zero) : 1FD44535
AccurateRip v1 signature : 001E85E3
AccurateRip v2 signature : 1B7365C2
->Track not present in AccurateRip database.
Statistics
Read error : 0
Jitter error (maybe fixed) : 0
Retry sector count : 203
Damaged sector count : 0
Track 03
Filename : /Applications/Rips/Coalition - Birth (1978) [FLAC]/03 - Song To My Lady.flac
Pre-gap length : 00:03:23
Track gain : 4.11 dB
Peak : 0.759674
CRC32 hash (test run) : 8AA80393
CRC32 hash : 8AA80393
CRC32 hash (skip zero) : 9B677E54
AccurateRip v1 signature : D29CACC8
AccurateRip v2 signature : 38C6B492
->Track not present in AccurateRip database.
Statistics
Read error : 0
Jitter error (maybe fixed) : 0
Retry sector count : 0
Damaged sector count : 0
Track 04
Filename : /Applications/Rips/Coalition - Birth (1978) [FLAC]/04 - Bill's Samba.flac
Pre-gap length : 00:04:01
Track gain : -3.40 dB
Peak : 0.985596
CRC32 hash (test run) : 9C4651F4
CRC32 hash : 9C4651F4
CRC32 hash (skip zero) : 8A1DA01C
AccurateRip v1 signature : 6A4398B4
AccurateRip v2 signature : 2A68000A
->Track not present in AccurateRip database.
Statistics
Read error : 0
Jitter error (maybe fixed) : 0
Retry sector count : 294
Damaged sector count : 0
Track 05
Filename : /Applications/Rips/Coalition - Birth (1978) [FLAC]/05 - Kenya's Horizon.flac
Pre-gap length : 00:05:66
Track gain : -4.13 dB
Peak : 1.000000
CRC32 hash (test run) : D3F378BE
CRC32 hash : D3F378BE
CRC32 hash (skip zero) : 95DE52C7
AccurateRip v1 signature : 19F2B2D0
AccurateRip v2 signature : E0C24FDC
->Track not present in AccurateRip database.
Statistics
Read error : 0
Jitter error (maybe fixed) : 0
Retry sector count : 0
Damaged sector count : 0
Track 06
Filename : /Applications/Rips/Coalition - Birth (1978) [FLAC]/06 - The Downer.flac
Pre-gap length : 00:03:30
Track gain : -6.34 dB
Peak : 1.000000
CRC32 hash (test run) : 12C1D1DE
CRC32 hash : 12C1D1DE
CRC32 hash (skip zero) : 2A3B9BA0
AccurateRip v1 signature : 608E0E31
AccurateRip v2 signature : 58EC3EEA
->Track not present in AccurateRip database.
Statistics
Read error : 0
Jitter error (maybe fixed) : 0
Retry sector count : 0
Damaged sector count : 0
No errors occurred
End of status report
-----BEGIN XLD SIGNATURE-----
Ky5XwhMf7gZa8FT1BRNY6Fh5J1_91CNWZf7aAazS7tfTfiCBEM3dV14MRfqbboU5LPsph9vW4cYaKANK6J_prGS7ZzOwOZgjXNJZoWy
-----END XLD SIGNATURE-----
 
Содержание индексной карты (.CUE)
TITLE "Birth"
PERFORMER "Coalition"
CATALOG 4571225532486
REM GENRE "Jazz"
REM DATE "1978"
REM DISCID 470A1306
REM REPLAYGAIN_ALBUM_GAIN -4.91 dB
REM REPLAYGAIN_ALBUM_PEAK 1.000000
FILE "01 - Marionette.flac" WAVE
TRACK 01 AUDIO
TITLE "Marionette"
REM REPLAYGAIN_TRACK_GAIN -4.36 dB
REM REPLAYGAIN_TRACK_PEAK 1.000000
INDEX 01 00:00:00
TRACK 02 AUDIO
TITLE "Thinking of You"
REM REPLAYGAIN_TRACK_GAIN -2.04 dB
REM REPLAYGAIN_TRACK_PEAK 0.991669
INDEX 00 11:13:39
FILE "02 - Thinking of You.flac" WAVE
INDEX 01 00:00:00
TRACK 03 AUDIO
TITLE "Song to My Lady"
REM REPLAYGAIN_TRACK_GAIN 4.11 dB
REM REPLAYGAIN_TRACK_PEAK 0.759674
INDEX 00 06:39:47
FILE "03 - Song to My Lady.flac" WAVE
INDEX 01 00:00:00
TRACK 04 AUDIO
TITLE "Bill's Samba"
REM REPLAYGAIN_TRACK_GAIN -3.40 dB
REM REPLAYGAIN_TRACK_PEAK 0.985596
INDEX 00 01:26:54
FILE "04 - Bill's Samba.flac" WAVE
INDEX 01 00:00:00
TRACK 05 AUDIO
TITLE "Kenya's Horizon"
REM REPLAYGAIN_TRACK_GAIN -4.13 dB
REM REPLAYGAIN_TRACK_PEAK 1.000000
INDEX 00 04:33:39
FILE "05 - Kenya's Horizon.flac" WAVE
INDEX 01 00:00:00
TRACK 06 AUDIO
TITLE "The Downer"
REM REPLAYGAIN_TRACK_GAIN -6.34 dB
REM REPLAYGAIN_TRACK_PEAK 1.000000
INDEX 00 11:43:20
FILE "06 - The Downer.flac" WAVE
INDEX 01 00:00:00
 
Об альбоме (сборнике)
A very hip group from the 70s Philly scene – a jazz combo who've got a soulful swing and a wonderfully lyrical feel! The record has a bit of vocals, but really just added in as flavoring for the quartet's excellent instrumental interplay – a blend of tenor and flute with piano, bass, and drums that steps out wonderfully – often with a bit of a Strata East sort of vibe, especially on the longer, more searching tracks! The groove is way deeper than you might guess from the cover, or the monotone look of the set – and the set's one of those rare 70s nuggets from a small label that has more surprise and imagination than most big label jazz sets of the time. Titles include "Marionette", "Bill's Samba", "Kenya's Horizon", and the excellent "The Downer".
Приватный:
Нет (DHT включён)
Размер:
244.92 Мб (256,817,935 байт) » файлов: 13
Участники:
0 раздают, 0 качают (0 участников всего)
Внешние участники:
1 раздают, 0 качают (1 участников всего) [ Обновить ]
No seeders - write a personal message to user M0p94ok. Нет сидеров - пишите личное сообщение пользователю M0p94ok.
05:44
68
Нет комментариев. Ваш будет первым!