Поиск

(Jazz-Funk, Fusion, Latin Jazz) [CD] Nil's Jazz Ensemble - Nil's Jazz Ensemble - 1976 (2005), FLAC (tracks+.cue), lossless

(Jazz-Funk, Fusion, Latin Jazz) [CD] Nil's Jazz Ensemble - Nil's Jazz Ensemble - 1976 (2005), FLAC (tracks+.cue), lossless
Треклист:
Nil's Jazz Ensemble - Nil's Jazz Ensemble
Жанр: Jazz-Funk, Fusion, Latin Jazz
Носитель: CD
Страна-производитель диска (релиза): США
Год издания: 2005
Издатель (лейбл): Lazarus Audio Products
Номер по каталогу: CD-2019
Страна исполнителя (группы): Перу
Аудиокодек: FLAC (*.flac)
Тип рипа: tracks+.cue
Битрейт аудио: lossless
Продолжительность: 71:46
Источник (релизер): wikieup
Наличие сканов в содержимом раздачи: нет
Треклист:
01. Reflexions (4:00)
02. Looking for a Blues (3:42)
03. Summer Love (4:11)
04. Black Angel (5:43)
05. Siempre (3:51)
06. Somos Nada (4:03)
07. Hard Work (4:40)
08. Frankie and Johnny (6:15)
09. Bossa Swing (5:30)
10. Caravan (9:33)
11. Song for My Father (10:06)
12. Blues for Gushi (10:12)
 
Лог создания рипа
Exact Audio Copy V1.0 beta 3 from 29. August 2011
EAC extraction logfile from 10. May 2016, 8:35
Nil's Jazz Ensemble / Nil's Jazz Ensemble [2005 Reissue]
Used drive : TSSTcorpDVD-ROM TS-U333B Adapter: 0 ID: 1
Read mode : Secure
Utilize accurate stream : Yes
Defeat audio cache : Yes
Make use of C2 pointers : No
Read offset correction : 6
Overread into Lead-In and Lead-Out : No
Fill up missing offset samples with silence : Yes
Delete leading and trailing silent blocks : No
Null samples used in CRC calculations : Yes
Used interface : Native Win32 interface for Win NT & 2000
Gap handling : Appended to previous track
Used output format : User Defined Encoder
Selected bitrate : 1024 kBit/s
Quality : High
Add ID3 tag : No
Command line compressor : C:\Program Files\Exact Audio Copy\Flac\flac.exe
Additional command line options : -8 -V -T "ARTIST=%artist%" -T "TITLE=%title%" -T "ALBUM=%albumtitle%" -T "DATE=%year%" -T "TRACKNUMBER=%tracknr%" -T "GENRE=%genre%" -T "PERFORMER=%albuminterpret%" -T "COMPOSER=%composer%" %haslyrics%--tag-from-file=LYRICS="%lyricsfile%"%haslyrics% -T "ALBUMARTIST=%albumartist%" -T "DISCNUMBER=%cdnumber%" -T "TOTALDISCS=%totalcds%" -T "TOTALTRACKS=%numtracks%" -T "COMMENT=%comment%" %source% -o %dest%
TOC of the extracted CD
Track | Start | Length | Start sector | End sector
---------------------------------------------------------
1 | 0:00.00 | 4:00.31 | 0 | 18030
2 | 4:00.31 | 3:42.29 | 18031 | 34709
3 | 7:42.60 | 4:11.26 | 34710 | 53560
4 | 11:54.11 | 5:43.01 | 53561 | 79286
5 | 17:37.12 | 3:51.22 | 79287 | 96633
6 | 21:28.34 | 4:02.72 | 96634 | 114855
7 | 25:31.31 | 4:39.72 | 114856 | 135852
8 | 30:11.28 | 6:15.03 | 135853 | 163980
9 | 36:26.31 | 5:30.31 | 163981 | 188761
10 | 41:56.62 | 9:33.05 | 188762 | 231741
11 | 51:29.67 | 10:05.72 | 231742 | 277188
12 | 61:35.64 | 10:12.04 | 277189 | 323092
Track 1
Filename C:\EAC Rips\01 - Reflexions.wav
Pre-gap length 0:00:02.00
Peak level 100.0 %
Extraction speed 2.9 X
Track quality 100.0 %
Test CRC 97C2E084
Copy CRC 97C2E084
Accurately ripped (confidence 1) [F6C9E8CC] (AR v2)
Copy OK
Track 2
Filename C:\EAC Rips\02 - Looking For A Blues.wav
Pre-gap length 0:00:02.00
Peak level 100.0 %
Extraction speed 3.1 X
Track quality 100.0 %
Test CRC B03BF899
Copy CRC B03BF899
Accurately ripped (confidence 1) [6F7F5771] (AR v2)
Copy OK
Track 3
Filename C:\EAC Rips\03 - Summer Love.wav
Pre-gap length 0:00:02.00
Peak level 100.0 %
Extraction speed 2.8 X
Track quality 99.9 %
Test CRC 5F43FA22
Copy CRC 5F43FA22
Accurately ripped (confidence 1) [804FB9F9] (AR v2)
Copy OK
Track 4
Filename C:\EAC Rips\04 - Black Angel.wav
Pre-gap length 0:00:02.00
Peak level 97.2 %
Extraction speed 3.7 X
Track quality 100.0 %
Test CRC F6B3C026
Copy CRC F6B3C026
Accurately ripped (confidence 1) [4F0A132D] (AR v2)
Copy OK
Track 5
Filename C:\EAC Rips\05 - Siempre.wav
Pre-gap length 0:00:02.00
Peak level 100.0 %
Extraction speed 3.8 X
Track quality 100.0 %
Test CRC 6F8CEEB6
Copy CRC 6F8CEEB6
Accurately ripped (confidence 1) [98D68832] (AR v2)
Copy OK
Track 6
Filename C:\EAC Rips\06 - Somos Nada.wav
Pre-gap length 0:00:02.00
Peak level 100.0 %
Extraction speed 4.0 X
Track quality 100.0 %
Test CRC 78C125E2
Copy CRC 78C125E2
Accurately ripped (confidence 1) [8A6BA18A] (AR v2)
Copy OK
Track 7
Filename C:\EAC Rips\07 - Hard Work.wav
Pre-gap length 0:00:02.00
Peak level 100.0 %
Extraction speed 4.3 X
Track quality 100.0 %
Test CRC 17FF64F5
Copy CRC 17FF64F5
Accurately ripped (confidence 1) [8B8B5C1B] (AR v2)
Copy OK
Track 8
Filename C:\EAC Rips\08 - Fankie And Johnny.wav
Pre-gap length 0:00:02.00
Peak level 100.0 %
Extraction speed 4.7 X
Track quality 100.0 %
Test CRC CD586220
Copy CRC CD586220
Accurately ripped (confidence 1) [385FE0A5] (AR v2)
Copy OK
Track 9
Filename C:\EAC Rips\09 - Bossa Swing.wav
Pre-gap length 0:00:02.00
Peak level 100.0 %
Extraction speed 4.8 X
Track quality 100.0 %
Test CRC 12D8DFE4
Copy CRC 12D8DFE4
Accurately ripped (confidence 1) [3F3353F9] (AR v2)
Copy OK
Track 10
Filename C:\EAC Rips\10 - Caravan.wav
Pre-gap length 0:00:02.00
Peak level 100.0 %
Extraction speed 5.4 X
Track quality 100.0 %
Test CRC AD783522
Copy CRC AD783522
Accurately ripped (confidence 1) [FDCC5628] (AR v2)
Copy OK
Track 11
Filename C:\EAC Rips\11 - Song For My Father.wav
Pre-gap length 0:00:02.00
Peak level 100.0 %
Extraction speed 5.8 X
Track quality 100.0 %
Test CRC C9DB6185
Copy CRC C9DB6185
Accurately ripped (confidence 1) [6C1045D5] (AR v2)
Copy OK
Track 12
Filename C:\EAC Rips\12 - Blues For Gushi.wav
Pre-gap length 0:00:02.00
Peak level 100.0 %
Extraction speed 6.2 X
Track quality 100.0 %
Test CRC 2731DFAE
Copy CRC 2731DFAE
Accurately ripped (confidence 1) [26A9C359] (AR v2)
Copy OK
All tracks accurately ripped
No errors occurred
End of status report
==== Log checksum 33DAE5BEC9E223F822A8129F1B36397F63874D44DCFA7A8DEB2EED40FE0FC667 ====
 
Содержание индексной карты (.CUE)
REM GENRE Jazz
REM DATE 1976
REM DISCID A310D30C
REM COMMENT "ExactAudioCopy v1.0b3"
PERFORMER "Nil's Jazz Ensemble"
TITLE "Nil's Jazz Ensemble"
FILE "01 - Reflexions.wav" WAVE
TRACK 01 AUDIO
TITLE "Reflexions"
PERFORMER "Nil's Jazz Ensemble"
INDEX 01 00:00:00
TRACK 02 AUDIO
TITLE "Looking for a Blues"
PERFORMER "Nil's Jazz Ensemble"
INDEX 00 03:58:31
FILE "02 - Looking for a Blues.wav" WAVE
INDEX 01 00:00:00
TRACK 03 AUDIO
TITLE "Summer Love"
PERFORMER "Nil's Jazz Ensemble"
INDEX 00 03:40:29
FILE "03 - Summer Love.wav" WAVE
INDEX 01 00:00:00
TRACK 04 AUDIO
TITLE "Black Angel"
PERFORMER "Nil's Jazz Ensemble"
INDEX 00 04:09:26
FILE "04 - Black Angel.wav" WAVE
INDEX 01 00:00:00
TRACK 05 AUDIO
TITLE "Siempre"
PERFORMER "Nil's Jazz Ensemble"
INDEX 00 05:41:01
FILE "05 - Siempre.wav" WAVE
INDEX 01 00:00:00
TRACK 06 AUDIO
TITLE "Somos Nada"
PERFORMER "Nil's Jazz Ensemble"
INDEX 00 03:49:22
FILE "06 - Somos Nada.wav" WAVE
INDEX 01 00:00:00
TRACK 07 AUDIO
TITLE "Hard Work"
PERFORMER "Nil's Jazz Ensemble"
INDEX 00 04:00:72
FILE "07 - Hard Work.wav" WAVE
INDEX 01 00:00:00
TRACK 08 AUDIO
TITLE "Frankie and Johnny"
PERFORMER "Nil's Jazz Ensemble"
INDEX 00 04:37:72
FILE "08 - Frankie and Johnny.wav" WAVE
INDEX 01 00:00:00
TRACK 09 AUDIO
TITLE "Bossa Swing"
PERFORMER "Nil's Jazz Ensemble"
INDEX 00 06:13:03
FILE "09 - Bossa Swing.wav" WAVE
INDEX 01 00:00:00
TRACK 10 AUDIO
TITLE "Caravan"
PERFORMER "Nil's Jazz Ensemble"
INDEX 00 05:28:31
FILE "10 - Caravan.wav" WAVE
INDEX 01 00:00:00
TRACK 11 AUDIO
TITLE "Song for My Father"
PERFORMER "Nil's Jazz Ensemble"
INDEX 00 09:31:05
FILE "11 - Song for My Father.wav" WAVE
INDEX 01 00:00:00
TRACK 12 AUDIO
TITLE "Blues for Gushi"
PERFORMER "Nil's Jazz Ensemble"
INDEX 00 10:03:72
FILE "12 - Blues for Gushi.wav" WAVE
INDEX 01 00:00:00
 
Об альбоме (сборнике)
Fantastic latin-jazz-funk album recorded in Lima, Peru in 1976, starring leader/saxophonist/flautist Nilo Espinosa, formerly of Bossa 70, and also featuring keyboardist Miguel "Chino" Figueroa, a member of renowned latin-funk band Black Sugar.
 
Состав
Nilo Espinosa - tenor saxophone, alto saxophone, soprano saxophone, flute
Pancho Saenz - trumpet, flugelhorn
Miguel "Chino" Figueroa - electric piano, clavinet, mellotron
Oscar Stagnaro - electric bass
Andres Silva - drums
Jorge Montero - guitar
Richie Zellon, Ramon Stagnaro - electric guitar
Ary Quispe - trombone
Mauro Silva - congas
Recorded in Lima, Peru in 1976.
Приватный:
Нет (DHT включён)
Размер:
467.93 Мб (490,659,292 байт) » файлов: 18
Участники:
0 раздают, 0 качают (0 участников всего)
Внешние участники:
2 раздают, 1 качают (3 участников всего) [ Обновить ]
Есть вопросы - пишите личное сообщение пользователю M0p94ok.
12:59
113
Нет комментариев. Ваш будет первым!