Поиск

(Jazz-Funk, Soul, Psychedelic) [CD] The Deirdre Wilson Tabac - The Deirdre Wilson Tabac - 1969 (2011), FLAC (image+.cue), lossless

(Jazz-Funk, Soul, Psychedelic) [CD] The Deirdre Wilson Tabac - The Deirdre Wilson Tabac - 1969 (2011), FLAC (image+.cue), lossless
Треклист:
The Deirdre Wilson Tabac - The Deirdre Wilson Tabac
Жанр: Jazz-Funk, Soul, Psychedelic
Носитель: CD
Страна-производитель диска (релиза): UK
Год издания: 1969 (2011)
Издатель (лейбл): Aurora
Номер по каталогу: AUCD5014
Страна исполнителя (группы): USA
Аудиокодек: FLAC (*.flac)
Тип рипа: image+.cue
Битрейт аудио: lossless
Продолжительность: 00:29:47
Источник (релизер): собственный рип
Наличие сканов в содержимом раздачи: да
Треклист:
01. The Other Side Of Life 2:58
02. The Dock Of The Bay 2:48
03. Let's All Join Together 2:37
04. Get Back 2:25
05. Angel Baby 2:48
06. The Last Thing On His Mind 3:04
07. I Can't Keep From Cryin' Sometimes 3:20
08. Look In My Face 2:51
09. Magic One 3:03
10. I Go To You 3:27
Bonus tracks:
11. Turn Around
12. Children Listen
 
Лог создания рипа
Exact Audio Copy V1.1 from 23. June 2015
Отчёт EAC об извлечении, выполненном 7. февраля 2017, 13:34
The Deirdre Wilson Tabac / The Deirdre Wilson Tabac
Дисковод: ASUS DRW-24B3ST Adapter: 0 ID: 0
Режим чтения : Достоверность
Использование точного потока : Да
Отключение кэша аудио : Да
Использование указателей C2 : Нет
Коррекция смещения при чтении : 6
Способность читать области Lead-in и Lead-out : Нет
Заполнение пропущенных сэмплов тишиной : Да
Удаление блоков с тишиной в начале и конце : Нет
При вычислениях CRC использовались нулевые сэмплы : Да
Интерфейс : Установленный внешний ASPI-интерфейс
Выходной формат : Пользовательский кодировщик
Выбранный битрейт : 1024 kBit/s
Качество : Высокий
Добавление ID3-тега : Нет
Утилита сжатия : C:\Program Files (x86)\Exact Audio Copy\Flac\flac.exe
Дополнительные параметры : -V -8 -T "Date=%year%" -T "Genre=%genre%" %source%
TOC извлечённого CD
Трек | Старт | Длительность | Начальный сектор | Конечный сектор
---------------------------------------------------------------------
1 | 0:00.00 | 3:00.68 | 0 | 13567
2 | 3:00.68 | 2:51.06 | 13568 | 26398
3 | 5:51.74 | 2:38.62 | 26399 | 38310
4 | 8:30.61 | 2:26.62 | 38311 | 49322
5 | 10:57.48 | 2:51.21 | 49323 | 62168
6 | 13:48.69 | 3:05.06 | 62169 | 76049
7 | 16:54.00 | 3:22.65 | 76050 | 91264
8 | 20:16.65 | 2:57.60 | 91265 | 104599
9 | 23:14.50 | 3:02.21 | 104600 | 118270
10 | 26:16.71 | 3:03.05 | 118271 | 132000
11 | 29:20.01 | 0:26.41 | 132001 | 133991
Характеристики диапазона извлечения и сообщения об ошибках
Выбранный диапазон
Имя файла C:\Torrents - my\The Deirdre Wilson Tabac - 1969 - The Deirdre Wilson Tabac\The Deirdre Wilson Tabac - The Deirdre Wilson Tabac.wav
Пиковый уровень 90.0 %
Скорость извлечения 7.3 X
Качество диапазона 100.0 %
CRC теста A0B4FD63
CRC копии A0B4FD63
Копирование... OK
Ошибок не произошло
AccurateRip: сводка
Трек 1 : извлечено точно (доверие 4) [5958A9EF] (AR v2)
Трек 2 : извлечено точно (доверие 3) [0E096D1B] (AR v2)
Трек 3 : извлечено точно (доверие 3) [4723914E] (AR v2)
Трек 4 : извлечено точно (доверие 3) [EBF44B6B] (AR v2)
Трек 5 : извлечено точно (доверие 3) [EBA69605] (AR v2)
Трек 6 : извлечено точно (доверие 3) [60D0F151] (AR v2)
Трек 7 : извлечено точно (доверие 3) [3ADE128D] (AR v2)
Трек 8 : извлечено точно (доверие 3) [C21CB746] (AR v2)
Трек 9 : извлечено точно (доверие 3) [2359BAFD] (AR v2)
Трек 10 : извлечено точно (доверие 3) [29D9F68C] (AR v2)
Трек 11 : извлечено точно (доверие 3) [358F6465] (AR v2)
Все треки извлечены точно
Конец отчёта
==== Контрольная сумма отчёта 6394243565D43D2B079356AEE64A4EC2E567CD019E8E5B67ECB764232F5E73D0 ====
Приватный:
Нет (DHT включён)
Размер:
210.71 Мб (220,949,899 байт) » файлов: 10
Участники:
0 раздают, 0 качают (0 участников всего)
Внешние участники:
2 раздают, 1 качают (3 участников всего) [ Обновить ]
No seeders - write a personal message to user M0p94ok. Нет сидеров - пишите личное сообщение пользователю M0p94ok.
12:58
88
Нет комментариев. Ваш будет первым!