Поиск

(Rock, Funk, Soul) [CD] Cold Blood - Lydia - 1974 (2004, Collectables), FLAC (tracks+.cue), lossless

(Rock, Funk, Soul) [CD] Cold Blood - Lydia - 1974 (2004, Collectables), FLAC (tracks+.cue), lossless
Треклист:

Cold Blood - Lydia - 1974 (2004, Collectables)
(): Пятый и предпоследний диск группы. Уже на Уорнере, а не на Репризе. А в группе аж 9 человек, вокалистка Лидия теперь явный лидер - её имя и лицо на обложке. Этот альбом спродюсcировал сотрудник компании Stax Records, гитарист и автор песен Стив Кроппер (Steve Cropper). Всё больше чистого фанка в музыке группы. Много духовых и перкуссии
Жанр: Rock, Funk, Soul
Носитель: CD (Reissue, Remastered )
Страна-производитель диска (релиза): US
Год издания оригинала: 1974 on Warner Brothers 2806
Год переиздания: 2004
Издатель (лейбл): Collectables
Номер по каталогу: COL-CD-6387
Страна исполнителя (группы): US
Аудио кодек: FLAC (*.flac)
Тип рипа: (image + .cue)
Битрейт аудио: lossless
Наличие сканов в содержимом раздачи: full scans, jpeg, 600 dpi
Продолжительность: 38:47
Источник (релизер): what.cd (scans from blog Rockasteria, Marios)
Трэклист:
1. Ready To Live (Lonnie Hewitt, Paul Edward Smith) - 5:24
2. Simple Love Life (Paul Edward Smith, R. Smith) - 3:18
3. Under Pressure (Fred Gowdy, Larry Wilkins) - 3:30
4. When My Love Hand Comes Down (Gloria Jones, Pam Sawyer) - 4:23
5. When It's Over (A. Wayne) - 2:33
6. Consideration (Steve Cropper) - 3:36
7. I Only Wanted Someone To Hear Me (Allan Rush, Dee Presley) - 3:54
8. You're Free Lovin' Me (Carl Marsh, Steve Cropper) - 3:51
9. Come Back Into My Life Again (B. R. Charles) - 3:40
10. Just Like Sunshine (Paul Edward Smith, Raul Matute) - 4:38
 
Лог создания рипа (2012-05-27)
X Lossless Decoder version 20120407 (140.0)
XLD extraction logfile from 2012-05-27 16:54:54 -0500
Cold Blood / Lydia
Used drive : MATSHITA DVD-R UJ-857D (revision KBVB)
Ripper mode : XLD Secure Ripper
Disable audio cache : OK for the drive with a cache less than 1375KiB
Make use of C2 pointers : NO
Read offset correction : 102
Max retry count : 100
Gap status : Analyzed, Appended
TOC of the extracted CD
Track | Start | Length | Start sector | End sector
---------------------------------------------------------
1 | 00:00:00 | 05:24:08 | 0 | 24307
2 | 05:24:08 | 03:17:60 | 24308 | 39142
3 | 08:41:68 | 03:30:26 | 39143 | 54918
4 | 12:12:19 | 04:23:17 | 54919 | 74660
5 | 16:35:36 | 02:33:26 | 74661 | 86161
6 | 19:08:62 | 03:36:28 | 86162 | 102389
7 | 22:45:15 | 03:53:45 | 102390 | 119909
8 | 26:38:60 | 03:50:40 | 119910 | 137199
9 | 30:29:25 | 03:40:00 | 137200 | 153699
10 | 34:09:25 | 04:38:34 | 153700 | 174583
AccurateRip Summary
Track 01 : OK (confidence 5)
Track 02 : OK (confidence 5)
Track 03 : OK (confidence 5)
Track 04 : OK (confidence 5)
Track 05 : OK (confidence 5)
Track 06 : OK (confidence 5)
Track 07 : OK (confidence 5)
Track 08 : OK (confidence 5)
Track 09 : OK (confidence 5)
Track 10 : OK (confidence 5)
->All tracks accurately ripped.
All Tracks
Album gain : -4.52 dB
Peak : 0.999969
Statistics
Read error : 0
Jitter error (maybe fixed) : 0
Retry sector count : 0
Damaged sector count : 0
Track 01
Filename : /Volumes/External HDD/Torrenst (Created)/Cold Blood - Lydia (1974, 2004 Re-issue) FLAC/01 - Ready To Live.flac
Pre-gap length : 00:02:00
Track gain : -4.27 dB
Peak : 0.999969
CRC32 hash (test run) : 4B6D7C48
CRC32 hash : 4B6D7C48
CRC32 hash (skip zero) : AB34280C
AccurateRip signature : 6F6A2458
->Accurately ripped! (confidence 5)
Statistics
Read error : 0
Jitter error (maybe fixed) : 0
Retry sector count : 0
Damaged sector count : 0
Track 02
Filename : /Volumes/External HDD/Torrenst (Created)/Cold Blood - Lydia (1974, 2004 Re-issue) FLAC/02 - Simple Love Life.flac
Pre-gap length : 00:02:00
Track gain : -5.07 dB
Peak : 0.999969
CRC32 hash (test run) : 6B2981CA
CRC32 hash : 6B2981CA
CRC32 hash (skip zero) : 0F4D6E9C
AccurateRip signature : B689F098
->Accurately ripped! (confidence 5)
Statistics
Read error : 0
Jitter error (maybe fixed) : 0
Retry sector count : 0
Damaged sector count : 0
Track 03
Filename : /Volumes/External HDD/Torrenst (Created)/Cold Blood - Lydia (1974, 2004 Re-issue) FLAC/03 - Under Pressure.flac
Pre-gap length : 00:02:01
Track gain : -3.31 dB
Peak : 0.999969
CRC32 hash (test run) : 0D726B5F
CRC32 hash : 0D726B5F
CRC32 hash (skip zero) : 16695A5D
AccurateRip signature : 36D0DFF5
->Accurately ripped! (confidence 5)
Statistics
Read error : 0
Jitter error (maybe fixed) : 0
Retry sector count : 0
Damaged sector count : 0
Track 04
Filename : /Volumes/External HDD/Torrenst (Created)/Cold Blood - Lydia (1974, 2004 Re-issue) FLAC/04 - When My Love Hand Comes Down.flac
Pre-gap length : 00:02:01
Track gain : -4.39 dB
Peak : 0.999969
CRC32 hash (test run) : 1F86633C
CRC32 hash : 1F86633C
CRC32 hash (skip zero) : 39539248
AccurateRip signature : 24141F8C
->Accurately ripped! (confidence 5)
Statistics
Read error : 0
Jitter error (maybe fixed) : 0
Retry sector count : 0
Damaged sector count : 0
Track 05
Filename : /Volumes/External HDD/Torrenst (Created)/Cold Blood - Lydia (1974, 2004 Re-issue) FLAC/05 - When It's Over.flac
Pre-gap length : 00:02:00
Track gain : -4.30 dB
Peak : 0.999969
CRC32 hash (test run) : 4FFD3BA4
CRC32 hash : 4FFD3BA4
CRC32 hash (skip zero) : 2C9CF16B
AccurateRip signature : C786880F
->Accurately ripped! (confidence 5)
Statistics
Read error : 0
Jitter error (maybe fixed) : 0
Retry sector count : 0
Damaged sector count : 0
Track 06
Filename : /Volumes/External HDD/Torrenst (Created)/Cold Blood - Lydia (1974, 2004 Re-issue) FLAC/06 - Consideration.flac
Pre-gap length : 00:02:01
Track gain : -3.80 dB
Peak : 0.999969
CRC32 hash (test run) : BDA274F7
CRC32 hash : BDA274F7
CRC32 hash (skip zero) : 9B580001
AccurateRip signature : 9B4FA05F
->Accurately ripped! (confidence 5)
Statistics
Read error : 0
Jitter error (maybe fixed) : 0
Retry sector count : 0
Damaged sector count : 0
Track 07
Filename : /Volumes/External HDD/Torrenst (Created)/Cold Blood - Lydia (1974, 2004 Re-issue) FLAC/07 - I Only Wanted Someone To Hear Me.flac
Pre-gap length : 00:02:01
Track gain : -5.02 dB
Peak : 0.999969
CRC32 hash (test run) : 425FB3D1
CRC32 hash : 425FB3D1
CRC32 hash (skip zero) : A97158FA
AccurateRip signature : 032D951F
->Accurately ripped! (confidence 5)
Statistics
Read error : 0
Jitter error (maybe fixed) : 0
Retry sector count : 0
Damaged sector count : 0
Track 08
Filename : /Volumes/External HDD/Torrenst (Created)/Cold Blood - Lydia (1974, 2004 Re-issue) FLAC/08 - You're Free Lovin' Me.flac
Pre-gap length : 00:02:00
Track gain : -4.27 dB
Peak : 0.999969
CRC32 hash (test run) : A8655D4F
CRC32 hash : A8655D4F
CRC32 hash (skip zero) : A1517ED0
AccurateRip signature : 639690B0
->Accurately ripped! (confidence 5)
Statistics
Read error : 0
Jitter error (maybe fixed) : 0
Retry sector count : 0
Damaged sector count : 0
Track 09
Filename : /Volumes/External HDD/Torrenst (Created)/Cold Blood - Lydia (1974, 2004 Re-issue) FLAC/09 - Come Back Into My Life Again.flac
Pre-gap length : 00:02:01
Track gain : -5.39 dB
Peak : 0.999969
CRC32 hash (test run) : F392D938
CRC32 hash : F392D938
CRC32 hash (skip zero) : 89021AA4
AccurateRip signature : FF991D7D
->Accurately ripped! (confidence 5)
Statistics
Read error : 0
Jitter error (maybe fixed) : 0
Retry sector count : 0
Damaged sector count : 0
Track 10
Filename : /Volumes/External HDD/Torrenst (Created)/Cold Blood - Lydia (1974, 2004 Re-issue) FLAC/10 - Just Like Sunshine.flac
Pre-gap length : 00:02:00
Track gain : -3.95 dB
Peak : 0.999969
CRC32 hash (test run) : 4210F3D7
CRC32 hash : 4210F3D7
CRC32 hash (skip zero) : 27654169
AccurateRip signature : 286C0FE5
->Accurately ripped! (confidence 5)
Statistics
Read error : 0
Jitter error (maybe fixed) : 0
Retry sector count : 0
Damaged sector count : 0
No errors occurred
End of status report
 
Содержание индексной карты (.CUE):
TITLE "Lydia"
PERFORMER "Cold Blood"
CATALOG 0090431638729
REM GENRE "R&B"
REM DATE "1974"
REM DISCID 7209170A
FILE "01 - Ready To Live.wav" WAVE
TRACK 01 AUDIO
TITLE "Ready To Live"
INDEX 01 00:00:00
TRACK 02 AUDIO
TITLE "Simple Love Life"
INDEX 00 05:22:08
FILE "02 - Simple Love Life.wav" WAVE
INDEX 01 00:00:00
TRACK 03 AUDIO
TITLE "Under Pressure"
INDEX 00 03:15:59
FILE "03 - Under Pressure.wav" WAVE
INDEX 01 00:00:00
TRACK 04 AUDIO
TITLE "When My Love Hand Comes Down"
INDEX 00 03:28:25
FILE "04 - When My Love Hand Comes Down.wav" WAVE
INDEX 01 00:00:00
TRACK 05 AUDIO
TITLE "When It's Over"
INDEX 00 04:21:17
FILE "05 - When It's Over.wav" WAVE
INDEX 01 00:00:00
TRACK 06 AUDIO
TITLE "Consideration"
INDEX 00 02:31:25
FILE "06 - Consideration.wav" WAVE
INDEX 01 00:00:00
TRACK 07 AUDIO
TITLE "I Only Wanted Someone To Hear Me"
INDEX 00 03:34:27
FILE "07 - I Only Wanted Someone To Hear Me.wav" WAVE
INDEX 01 00:00:00
TRACK 08 AUDIO
TITLE "You're Free Lovin' Me"
INDEX 00 03:51:45
FILE "08 - You're Free Lovin' Me.wav" WAVE
INDEX 01 00:00:00
TRACK 09 AUDIO
TITLE "Come Back Into My Life Again"
INDEX 00 03:48:39
FILE "09 - Come Back Into My Life Again.wav" WAVE
INDEX 01 00:00:00
TRACK 10 AUDIO
TITLE "Just Like Sunshine"
INDEX 00 03:38:00
FILE "10 - Just Like Sunshine.wav" WAVE
INDEX 01 00:00:00
 
Лог проверки качества
-----------------------
DON'T MODIFY THIS FILE
-----------------------
PERFORMER: auCDtect Task Manager, ver. 1.6.0 RC1 build 1.6.0.1
Copyright (c) 2008-2010 y-soft. All rights reserved
http://y-soft.org
ANALYZER: auCDtect: CD records authenticity detector, version 0.8.2
Copyright (c) 2004 Oleg Berngardt. All rights reserved.
Copyright (c) 2004 Alexander Djourik. All rights reserved.
FILE: 10 - Just Like Sunshine.flac
Size: 29493574 Hash: 20D0F23833C248209F513F416B4C5BA8 Accuracy: -m0
Conclusion: CDDA 100%
Signature: 79E386523E5A9AABC4C22F25CE3BB0792BBC9AF3
FILE: 09 - Come Back Into My Life Again.flac
Size: 23419186 Hash: 548D423C97A5C3F42AE471BC49F2F280 Accuracy: -m0
Conclusion: CDDA 100%
Signature: 5D905FB7BFB3D3DC30FDBF1C456E192843AF13CA
FILE: 08 - You're Free Lovin' Me.flac
Size: 23844110 Hash: F45BAB562FEE8B7D6026EBA9C877671E Accuracy: -m0
Conclusion: CDDA 100%
Signature: 7821B4D5B9682F30E73154C7E82C275FCA7ED6DF
FILE: 07 - I Only Wanted Someone To Hear Me.flac
Size: 24522748 Hash: B7212341D30B2A502601DB786714382C Accuracy: -m0
Conclusion: CDDA 99%
Signature: B77998DD30FE58B39A8652CBD74B6CB1F072481E
FILE: 06 - Consideration.flac
Size: 22311950 Hash: 390179F5E5D4CDCE15A5A864FCA75D7C Accuracy: -m0
Conclusion: CDDA 100%
Signature: 090F1DDF0E8D1D4CBCFC08D2414082B30F804654
FILE: 05 - When It's Over.flac
Size: 15874873 Hash: 1869F4ACB5FCA8F4EA9D259EB287102E Accuracy: -m0
Conclusion: CDDA 100%
Signature: 4D0F370CAB7896488F6DE20AC12D4B5040B2AC99
FILE: 04 - When My Love Hand Comes Down.flac
Size: 28111305 Hash: 306C658E004887D6B3C12DB65EEE40BB Accuracy: -m0
Conclusion: CDDA 100%
Signature: 139AAC99684C923DF65095FD9D4FAEB9CEB13F17
FILE: 03 - Under Pressure.flac
Size: 21239087 Hash: 8072A65457D4E4A4E3DFEB5706741F4C Accuracy: -m0
Conclusion: CDDA 100%
Signature: 6BDB5210A95C799C82E94CDF64177548C8F11B37
FILE: 02 - Simple Love Life.flac
Size: 19177115 Hash: 4506DF2D3B5A79762208120B5001821E Accuracy: -m0
Conclusion: CDDA 100%
Signature: E85651A7D0BBDCF01B14D01A541E593AFCCBA0FB
FILE: 01 - Ready To Live.flac
Size: 33375727 Hash: 00437C20275FCB8CCD58079D12B038EF Accuracy: -m0
Conclusion: CDDA 100%
Signature: 5D478A634A53B49195C9C1D2F6F5DEEC8A2DE352
 
Лог CUETools
[CUETools log; Date: 2/9/2017 8:23:43 AM; Version: 2.1.5]
[CTDB TOCID: FbHBwlcYCuXj6M82.6ddqPf7jh0-] found.
Track | CTDB Status
1 | (6/6) Accurately ripped
2 | (6/6) Accurately ripped
3 | (6/6) Accurately ripped
4 | (6/6) Accurately ripped
5 | (5/6) Accurately ripped
6 | (6/6) Accurately ripped
7 | (6/6) Accurately ripped
8 | (6/6) Accurately ripped
9 | (6/6) Accurately ripped
10 | (6/6) Accurately ripped
[AccurateRip ID: 000ec141-0074a449-7209170a] found.
Track [ CRC | V2 ] Status
01 [6f6a2458|ec25111f] (05+05/10) Accurately ripped
02 [b689f098|6792c742] (05+05/10) Accurately ripped
03 [36d0dff5|89a9a517] (05+05/10) Accurately ripped
04 [24141f8c|e3229032] (05+06/11) Accurately ripped
05 [c786880f|dc34581f] (05+04/09) Accurately ripped
06 [9b4fa05f|156e8dbb] (05+06/11) Accurately ripped
07 [032d951f|c2370a1a] (05+06/11) Accurately ripped
08 [639690b0|89472fb4] (05+06/11) Accurately ripped
09 [ff991d7d|fffb571d] (05+06/11) Accurately ripped
10 [286c0fe5|883103db] (05+06/11) Accurately ripped
Track Peak [ CRC32 ] [W/O NULL]
-- 100.0 [120B2BDF] [BC11A090]
01 100.0 [4B6D7C48] [AB34280C]
02 100.0 [6B2981CA] [0F4D6E9C]
03 100.0 [0D726B5F] [16695A5D]
04 100.0 [1F86633C] [39539248]
05 100.0 [4FFD3BA4] [2C9CF16B]
06 100.0 [BDA274F7] [9B580001]
07 100.0 [425FB3D1] [A97158FA]
08 100.0 [A8655D4F] [A1517ED0]
09 100.0 [F392D938] [89021AA4]
10 100.0 [4210F3D7] [27654169]

 
Back
 
Об альбоме (сборнике):
Cold Blood is one of the original R'n'B horn bands from the late 60's/ early 70's that exemplified the "East Bay Grease" melding of funk & rock with blues and jazz elements. Lydia Pense has been compared to Janis Joplin, but is a true original and a pioneer in the women's rock movement. Lydia Pense and Cold Blood packed the San Francisco Ballrooms in their heyday, but that was then and this is now. In the now, Lydia Pense and Cold Blood still fill halls with cheering, dancing, foot-stomping fans. Far from fading over the years, Cold Blood has flourished.
In 1974 their 5th released simply called "Lydia", legendary Stax guitarist Steve Cropper produced and and played on three cuts. A soulful approach with the band playing a blue-eyed funk crossbred. Lydia Pense is in fine form as always.
 
Состав
*Lydia Pense - Vocals
Michael Sasaki - Guitar
Paul Cannon - Guitar
Steve Cropper - Guitar
Joe Williams - Drums
Tommy Cathey - Bass
Rod Elliott - Bass
Raul Matute - Keyboards
David Luell - Alto, Tenor, Baritone Saxophones
Max Haskett - Trumpet
Jack Walrath - Trumpet
Gaylord Birch - Drums
Danny Kootch - Guitar
Bobbye Hall - Congas, Percussion
Chuck Bennett - Trombone
Paul Hubinon - Trumpet
Chuck Findley - Trumpet
Bobby Shew - Trumpet
Jim Horn - Tenor Saxophone, Flute
Don Menza - Tenor Saxophone, Flute, Piccolo
Peter Christlieb - Tenor Saxophone, Flute, Piccolo
The Memphis Horns

Приватный:
Нет (DHT включён)
Размер:
248.33 Мб (260,396,347 байт) » файлов: 20
Участники:
0 раздают, 0 качают (0 участников всего)
Внешние участники:
5 раздают, 1 качают (6 участников всего) [ Обновить ]
No seeders - write a personal message to user M0p94ok. Нет сидеров - пишите личное сообщение пользователю M0p94ok.
13:00
65
Нет комментариев. Ваш будет первым!