Поиск

(Jazz-Funk) [CD] Terumasa Hino - City Connection - 1979 (1994 Japan Edition), FLAC (tracks+.cue), lossless

(Jazz-Funk) [CD] Terumasa Hino - City Connection - 1979 (1994 Japan Edition), FLAC (tracks+.cue), lossless
Terumasa Hino - City Connection
Жанр: Jazz-Funk
Носитель: CD
Страна-производитель диска (релиза): Япония
Год издания: 1994
Издатель (лейбл): JVC
Номер по каталогу: VICJ-18004
Аудиокодек: FLAC (*.flac)
Тип рипа: tracks+.cue
Битрейт аудио: lossless
Продолжительность: 41:33
Источник (релизер): measet (what)
Наличие сканов в содержимом раздачи: нет
Треклист:
01. Hino's Reggae (Whitaker) - 8:12
02. Stay in My Waking Heart (Pendarcis-Gadsen) - 4:35
03. City Connection (Pendarcis) - 6:40
04. Send Me Your Feelings (Whitaker) - 4:37
05. High Tide-Manhattan Ecstasy (Hino) - 7:03
06. Samba De-La Cruz (Whitaker) - 2:51
07. Blue Smiles (Tribute to Blue Mitchell) (Hino) - 7:35
 
Лог создания рипа
Exact Audio Copy V1.1 from 23. June 2015
EAC extraction logfile from 30. January 2016, 19:42
Terumasa Hino / City Connection
Used drive : HL-DT-STDVD+-RW GS30N Adapter: 1 ID: 0
Read mode : Secure
Utilize accurate stream : Yes
Defeat audio cache : Yes
Make use of C2 pointers : No
Read offset correction : 667
Overread into Lead-In and Lead-Out : No
Fill up missing offset samples with silence : Yes
Delete leading and trailing silent blocks : No
Null samples used in CRC calculations : Yes
Used interface : Native Win32 interface for Win NT & 2000
Gap handling : Appended to previous track
Used output format : User Defined Encoder
Selected bitrate : 1024 kBit/s
Quality : High
Add ID3 tag : No
Command line compressor : C:\Program Files (x86)\Exact Audio Copy\FLAC\FLAC.EXE
Additional command line options : -6 -V -T "ARTIST=%artist%" -T "TITLE=%title%" -T "ALBUM=%albumtitle%" -T "DATE=%year%" -T "TRACKNUMBER=%tracknr%" -T "GENRE=%genre%" -T "COMMENT=%comment%" -T "BAND=%albuminterpret%" -T "ALBUMARTIST=%albuminterpret%" -T "COMPOSER=%composer%" %haslyrics%--tag-from-file=LYRICS="%lyricsfile%"%haslyrics% -T "DISCNUMBER=%cdnumber%" -T "TOTALDISCS=%totalcds%" -T "TOTALTRACKS=%numtracks%" %hascover%--picture="%coverfile%"%hascover% %source% -o %dest%
TOC of the extracted CD
Track | Start | Length | Start sector | End sector
---------------------------------------------------------
1 | 0:00.00 | 8:12.29 | 0 | 36928
2 | 8:12.29 | 4:34.74 | 36929 | 57552
3 | 12:47.28 | 6:39.63 | 57553 | 87540
4 | 19:27.16 | 4:37.01 | 87541 | 108316
5 | 24:04.17 | 7:03.03 | 108317 | 140044
6 | 31:07.20 | 2:50.74 | 140045 | 152868
7 | 33:58.19 | 7:35.12 | 152869 | 187005
Track 1
Filename D:\music\Terumasa Hino – City Connection\01. Terumasa Hino - Hino's Reggae.wav
Pre-gap length 0:00:02.00
Peak level 100.0 %
Extraction speed 3.2 X
Track quality 100.0 %
Test CRC 53462B4C
Copy CRC 53462B4C
Track not present in AccurateRip database
Copy OK
Track 2
Filename D:\music\Terumasa Hino – City Connection\02. Terumasa Hino - Stay In My Walking Heart.wav
Peak level 100.0 %
Extraction speed 3.4 X
Track quality 100.0 %
Test CRC 73BBA0B7
Copy CRC 73BBA0B7
Track not present in AccurateRip database
Copy OK
Track 3
Filename D:\music\Terumasa Hino – City Connection\03. Terumasa Hino - City Connection.wav
Peak level 100.0 %
Extraction speed 3.9 X
Track quality 100.0 %
Test CRC 96A44EF2
Copy CRC 96A44EF2
Track not present in AccurateRip database
Copy OK
Track 4
Filename D:\music\Terumasa Hino – City Connection\04. Terumasa Hino - Send Me Your Feelings.wav
Peak level 100.0 %
Extraction speed 4.0 X
Track quality 100.0 %
Test CRC 28A9498B
Copy CRC 28A9498B
Track not present in AccurateRip database
Copy OK
Track 5
Filename D:\music\Terumasa Hino – City Connection\05. Terumasa Hino - High Tdie-Manhattan Ecstasy.wav
Peak level 99.8 %
Extraction speed 4.5 X
Track quality 100.0 %
Test CRC A5DE3DFF
Copy CRC A5DE3DFF
Track not present in AccurateRip database
Copy OK
Track 6
Filename D:\music\Terumasa Hino – City Connection\06. Terumasa Hino - Samba De-La Cruz.wav
Peak level 95.6 %
Extraction speed 3.2 X
Track quality 99.9 %
Test CRC 47BA9BA1
Copy CRC 47BA9BA1
Track not present in AccurateRip database
Copy OK
Track 7
Filename D:\music\Terumasa Hino – City Connection\07. Terumasa Hino - Blue Smiles (Tribute To Blue Mitchell).wav
Peak level 71.9 %
Extraction speed 4.4 X
Track quality 99.9 %
Test CRC 44C735BF
Copy CRC 44C735BF
Track not present in AccurateRip database
Copy OK
None of the tracks are present in the AccurateRip database
No errors occurred
End of status report
---- CUETools DB Plugin V2.1.6
[CTDB TOCID: 3wSH7LZuRpq7TgPKtlv_29pHpY0-] disk not present in database
Submit result: 3wSH7LZuRpq7TgPKtlv_29pHpY0- has been uploaded
==== Log checksum 0E2697DF0D1C0DFB0B36FA25C38AD635EDF0756696CA4BE36470A5623A081352 ====
 
Содержание индексной карты (.CUE)
REM GENRE Jazz
REM DATE 1979
REM DISCID 6709BD07
REM COMMENT "ExactAudioCopy v1.1"
PERFORMER "Terumasa Hino"
TITLE "City Connection"
FILE "01 - Hino's Reggae.wav" WAVE
TRACK 01 AUDIO
TITLE "Hino's Reggae"
PERFORMER "Terumasa Hino"
INDEX 01 00:00:00
FILE "02 - Stay in My Waking Heart.wav" WAVE
TRACK 02 AUDIO
TITLE "Stay in My Waking Heart"
PERFORMER "Terumasa Hino"
INDEX 01 00:00:00
FILE "03 - City Connection.wav" WAVE
TRACK 03 AUDIO
TITLE "City Connection"
PERFORMER "Terumasa Hino"
INDEX 01 00:00:00
FILE "04 - Send Me Your Feelings.wav" WAVE
TRACK 04 AUDIO
TITLE "Send Me Your Feelings"
PERFORMER "Terumasa Hino"
INDEX 01 00:00:00
FILE "05 - High Tide-Manhattan Ecstasy.wav" WAVE
TRACK 05 AUDIO
TITLE "High Tide-Manhattan Ecstasy"
PERFORMER "Terumasa Hino"
INDEX 01 00:00:00
FILE "06 - Samba De-La Cruz.wav" WAVE
TRACK 06 AUDIO
TITLE "Samba De-La Cruz"
PERFORMER "Terumasa Hino"
INDEX 01 00:00:00
FILE "07 - Blue Smiles (Tribute to Blue Mitchell).wav" WAVE
TRACK 07 AUDIO
TITLE "Blue Smiles (Tribute to Blue Mitchell)"
PERFORMER "Terumasa Hino"
INDEX 01 00:00:00
 
Отчет CUETools
[CUETools log; Date: 23.04.2016 18:42:03; Version: 2.1.5]
[CTDB TOCID: 3wSH7LZuRpq7TgPKtlv_29pHpY0-] found.
Track | CTDB Status
1 | (1/1) Accurately ripped
2 | (1/1) Accurately ripped
3 | (1/1) Accurately ripped
4 | (1/1) Accurately ripped
5 | (1/1) Accurately ripped
6 | (1/1) Accurately ripped
7 | (1/1) Accurately ripped
[AccurateRip ID: 000bc0d4-0045589c-6709bd07] found.
Track [ CRC | V2 ] Status
01 [7088d53c|2eb2c7f8] (0+1/1) Accurately ripped
02 [d747f265|c204f2e6] (0+1/1) Accurately ripped
03 [f4db4a4c|eccb7a2b] (0+1/1) Accurately ripped
04 [09aeacf6|236d55a6] (0+1/1) Accurately ripped
05 [7e8a0c89|4df70f24] (0+1/1) Accurately ripped
06 [9fc3a405|988ba802] (0+1/1) Accurately ripped
07 [dc807a43|1d360d58] (0+1/1) Accurately ripped
Track Peak [ CRC32 ] [W/O NULL] [ LOG ]
-- 100,0 [EB7F3E1F] [139DDB74]
01 100,0 [53462B4C] [BA5E17E8] CRC32
02 100,0 [73BBA0B7] [6EAD4B10] CRC32
03 100,0 [96A44EF2] [6B2FE3B3] CRC32
04 100,0 [28A9498B] [47EF7270] CRC32
05 99,8 [A5DE3DFF] [FA4F4A18] CRC32
06 95,6 [47BA9BA1] [F91F7F3D] CRC32
07 71,9 [44C735BF] [24A91140] CRC32
 
Состав
Terumasa Hino - cornet (except #2), flugelhorn (#2)
Lani Groves (#1,4), Janice Pendarvis (#2) - vocals
Dave Liebman - soprano saxophone (#5,6), alto flute (#7)
David Spinozza - electric guitar, acoustic guitar (#2,7)
Harry Whitaker - acoustic piano (#2,5,6), Rhodes piano (#1,3,4)
L. Leon Pendarvis - acoustic piano (#1,3,7), Rhodes piano (#2,5,6)
Anthony Jackson - electric bass
Howard King - drums
Nana Vasconcelos - percussion (except #7)
Richard Okon - handclaps (#6)
Marvin Stamm (#2-5) - contractor, trumpet, flugelhorn
Randy Brecker (#2-5) - trumpet, flugelhorn
David Bargeron, Wayne Andre - trombone (#2-5)
David Tofani (#2-5) - alto saxophone, flute
Harold Vick (#2-5) - tenor saxophone, flute
Ronnie Cuber (#2-5) - baritone saxophone, alto flute
David Nadien(#1,2,4,7) - concertmaster, violin
Richard Sortomme, Lewis Elley, Max Ellen, Charles Libove, Marvin Morgenstern, Gerald Tarack, Harry Cykman - violin (#1,2,4,7)
Al Brown, Emanuel Vardi - viola (#1,2,4,7)
Chares McCraken, Jonathan Abramowitz - cello (#1,2,4,7)
Recorded at A&R Recording Studios, New York in July 1979.
10:35
666
Нет комментариев. Ваш будет первым!