Поиск

(Funk, Soul, R&B) [CD] Brighter Side Of Darkness - Love Jones (1973) - 2006, FLAC (tracks+.cue), lossless

(Funk, Soul, R&B) [CD] Brighter Side Of Darkness - Love Jones (1973) - 2006, FLAC (tracks+.cue), lossless
Треклист:
Brighter Side Of Darkness - Love Jones (1973) Жанр: Funk, Soul, R&B
Носитель: CD
Страна-производитель диска (релиза): Japan
Год издания: 2006
Издатель (лейбл): P-Vine
Номер по каталогу: PCD 22232
Аудиокодек: FLAC (*.flac)
Тип рипа: tracks+.cue
Битрейт аудио: lossless
Продолжительность: 44:37
Источник (релизер): What.cd (MimiSoul)
Наличие сканов в содержимом раздачи: нет
Треклист:
01. Just a Little Bit (4:38)
02. Oh Baby (2:52)
03. I Owe You Love (3:47)
04. Love Jones (4:31)
05. I'm a Loser (3:11)
06. Love Jones 'instrumental' (4:31)
07. Something to Remeber You by (3:08)
08. Just a Little Bit (5:45)
09. Summer Ride (2:25)
10. I'm the Guy (2:31)
11. Because I Love You [Bonus] (3:42)
12. Touchdown [Bonus] (3:36)
 
 
Лог создания рипа
Exact Audio Copy V1.0 beta 3 from 29. August 2011
EAC extraction logfile from 6. October 2012, 13:32
Brighter Side of Darkness / Love Jones
Used drive : MATSHITADVD-RAM UJ-850S Adapter: 0 ID: 0
Read mode : Secure
Utilize accurate stream : Yes
Defeat audio cache : Yes
Make use of C2 pointers : No
Read offset correction : 102
Overread into Lead-In and Lead-Out : No
Fill up missing offset samples with silence : Yes
Delete leading and trailing silent blocks : No
Null samples used in CRC calculations : Yes
Used interface : Native Win32 interface for Win NT & 2000
Gap handling : Appended to previous track
Used output format : User Defined Encoder
Selected bitrate : 1024 kBit/s
Quality : High
Add ID3 tag : No
Command line compressor : C:\Program Files\Exact Audio Copy\Flac\flac.exe
Additional command line options : -8 -V -T "ARTIST=%artist%" -T "TITLE=%title%" -T "ALBUM=%albumtitle%" -T "DATE=%year%" -T "TRACKNUMBER=%tracknr%" -T "GENRE=%genre%" -T "PERFORMER=%albuminterpret%" -T "COMPOSER=%composer%" %haslyrics%--tag-from-file=LYRICS="%lyricsfile%"%haslyrics% -T "ALBUMARTIST=%albumartist%" -T "DISCNUMBER=%cdnumber%" -T "TOTALDISCS=%totalcds%" -T "TOTALTRACKS=%numtracks%" -T "COMMENT=%comment%" %source% -o %dest%
TOC of the extracted CD
Track | Start | Length | Start sector | End sector
---------------------------------------------------------
1 | 0:00.00 | 4:38.20 | 0 | 20869
2 | 4:38.20 | 2:52.22 | 20870 | 33791
3 | 7:30.42 | 3:46.60 | 33792 | 50801
4 | 11:17.27 | 4:31.28 | 50802 | 71154
5 | 15:48.55 | 3:11.35 | 71155 | 85514
6 | 19:00.15 | 4:30.55 | 85515 | 105819
7 | 23:30.70 | 3:08.25 | 105820 | 119944
8 | 26:39.20 | 5:45.37 | 119945 | 145856
9 | 32:24.57 | 2:24.40 | 145857 | 156696
10 | 34:49.22 | 2:30.58 | 156697 | 168004
11 | 37:20.05 | 3:41.45 | 168005 | 184624
12 | 41:01.50 | 3:35.40 | 184625 | 200789
Track 1
Filename F:\[UPLOADS]\Brighter Side Of Darkness - Love Jones (1973) [FLAC]\01 Just a Little Bit.wav
Pre-gap length 0:00:02.00
Peak level 98.8 %
Extraction speed 1.6 X
Track quality 100.0 %
Test CRC 9C28346A
Copy CRC 9C28346A
Accurately ripped (confidence 1) [EE47F8E1] (AR v1)
Copy OK
Track 2
Filename F:\[UPLOADS]\Brighter Side Of Darkness - Love Jones (1973) [FLAC]\02 Oh Baby.wav
Pre-gap length 0:00:04.40
Peak level 98.8 %
Extraction speed 1.3 X
Track quality 99.9 %
Test CRC 4B44BBA4
Copy CRC 4B44BBA4
Accurately ripped (confidence 1) [271AAC36] (AR v1)
Copy OK
Track 3
Filename F:\[UPLOADS]\Brighter Side Of Darkness - Love Jones (1973) [FLAC]\03 I Owe You Love.wav
Pre-gap length 0:00:01.40
Peak level 98.8 %
Extraction speed 1.8 X
Track quality 100.0 %
Test CRC AFB028A6
Copy CRC AFB028A6
Accurately ripped (confidence 1) [1E3E0E3A] (AR v1)
Copy OK
Track 4
Filename F:\[UPLOADS]\Brighter Side Of Darkness - Love Jones (1973) [FLAC]\04 Love Jones.wav
Pre-gap length 0:00:04.40
Peak level 98.8 %
Extraction speed 1.9 X
Track quality 100.0 %
Test CRC 38C2A0F1
Copy CRC 38C2A0F1
Accurately ripped (confidence 1) [A9D2CB8A] (AR v1)
Copy OK
Track 5
Filename F:\[UPLOADS]\Brighter Side Of Darkness - Love Jones (1973) [FLAC]\05 I'm a Loser.wav
Pre-gap length 0:00:02.40
Peak level 98.8 %
Extraction speed 1.9 X
Track quality 100.0 %
Test CRC F8390ABF
Copy CRC F8390ABF
Accurately ripped (confidence 1) [305B144D] (AR v1)
Copy OK
Track 6
Filename F:\[UPLOADS]\Brighter Side Of Darkness - Love Jones (1973) [FLAC]\06 Love Jones ''instrumental''.wav
Pre-gap length 0:00:03.40
Peak level 98.8 %
Extraction speed 2.2 X
Track quality 100.0 %
Test CRC 2E35145A
Copy CRC 2E35145A
Accurately ripped (confidence 1) [6161B54C] (AR v1)
Copy OK
Track 7
Filename F:\[UPLOADS]\Brighter Side Of Darkness - Love Jones (1973) [FLAC]\07 Something to Remeber You by.wav
Pre-gap length 0:00:02.90
Peak level 98.8 %
Extraction speed 2.1 X
Track quality 100.0 %
Test CRC 5F15D548
Copy CRC 5F15D548
Accurately ripped (confidence 1) [1A992086] (AR v1)
Copy OK
Track 8
Filename F:\[UPLOADS]\Brighter Side Of Darkness - Love Jones (1973) [FLAC]\08 Just a Little Bit.wav
Pre-gap length 0:00:04.40
Peak level 98.8 %
Extraction speed 2.4 X
Track quality 100.0 %
Test CRC E10F3CCB
Copy CRC E10F3CCB
Accurately ripped (confidence 1) [E9ACFEE6] (AR v1)
Copy OK
Track 9
Filename F:\[UPLOADS]\Brighter Side Of Darkness - Love Jones (1973) [FLAC]\09 Summer Ride.wav
Pre-gap length 0:00:04.40
Peak level 98.8 %
Extraction speed 2.2 X
Track quality 100.0 %
Test CRC 953C4E32
Copy CRC 953C4E32
Accurately ripped (confidence 1) [A32011E9] (AR v1)
Copy OK
Track 10
Filename F:\[UPLOADS]\Brighter Side Of Darkness - Love Jones (1973) [FLAC]\10 I'm the Guy.wav
Pre-gap length 0:00:03.40
Peak level 98.8 %
Extraction speed 2.3 X
Track quality 100.0 %
Test CRC C7F45461
Copy CRC C7F45461
Accurately ripped (confidence 1) [1D6B6AF1] (AR v1)
Copy OK
Track 11
Filename F:\[UPLOADS]\Brighter Side Of Darkness - Love Jones (1973) [FLAC]\11 Because I Love You [Bonus].wav
Pre-gap length 0:00:03.40
Peak level 98.8 %
Extraction speed 2.5 X
Track quality 100.0 %
Test CRC 1768C204
Copy CRC 1768C204
Accurately ripped (confidence 1) [9C28B513] (AR v1)
Copy OK
Track 12
Filename F:\[UPLOADS]\Brighter Side Of Darkness - Love Jones (1973) [FLAC]\12 Touchdown [Bonus].wav
Pre-gap length 0:00:03.40
Peak level 98.8 %
Extraction speed 2.6 X
Track quality 100.0 %
Test CRC 13598441
Copy CRC 13598441
Accurately ripped (confidence 1) [8BAA425A] (AR v1)
Copy OK
All tracks accurately ripped
No errors occurred
End of status report
---- CUETools DB Plugin V2.1.3
[CTDB TOCID: emwxj4TZY7FbUzpfWWTUbX0lDcs-] disk not present in database, Submit result: emwxj4TZY7FbUzpfWWTUbX0lDcs- has been uploaded
==== Log checksum E557003B7D66BD6EF2049CD0D6499C7DB49F8A125D4F8A5EE982E350110B41CE ====
 
Содержание индексной карты (.CUE)
REM GENRE Soul
REM DATE 1973
REM DISCID 8C0A750C
REM COMMENT "ExactAudioCopy v1.0b3"
CATALOG 4995879222324
PERFORMER "Brighter Side of Darkness"
TITLE "Love Jones"
FILE "01 Just a Little Bit.wav" WAVE
TRACK 01 AUDIO
TITLE "Just a Little Bit"
PERFORMER "Brighter Side of Darkness"
INDEX 01 00:00:00
TRACK 02 AUDIO
TITLE "Oh Baby"
PERFORMER "Brighter Side of Darkness"
INDEX 00 04:33:65
FILE "02 Oh Baby.wav" WAVE
INDEX 01 00:00:00
TRACK 03 AUDIO
TITLE "I Owe You Love"
PERFORMER "Brighter Side of Darkness"
INDEX 00 02:50:67
FILE "03 I Owe You Love.wav" WAVE
INDEX 01 00:00:00
TRACK 04 AUDIO
TITLE "Love Jones"
PERFORMER "Brighter Side of Darkness"
INDEX 00 03:42:30
FILE "04 Love Jones.wav" WAVE
INDEX 01 00:00:00
TRACK 05 AUDIO
TITLE "I'm a Loser"
PERFORMER "Brighter Side of Darkness"
INDEX 00 04:28:73
FILE "05 I'm a Loser.wav" WAVE
INDEX 01 00:00:00
TRACK 06 AUDIO
TITLE "Love Jones 'instrumental'"
PERFORMER "Brighter Side of Darkness"
INDEX 00 03:08:05
FILE "06 Love Jones ''instrumental''.wav" WAVE
INDEX 01 00:00:00
TRACK 07 AUDIO
TITLE "Something to Remeber You by"
PERFORMER "Brighter Side of Darkness"
INDEX 00 04:27:62
FILE "07 Something to Remeber You by.wav" WAVE
INDEX 01 00:00:00
TRACK 08 AUDIO
TITLE "Just a Little Bit"
PERFORMER "Brighter Side of Darkness"
INDEX 00 03:03:70
FILE "08 Just a Little Bit.wav" WAVE
INDEX 01 00:00:00
TRACK 09 AUDIO
TITLE "Summer Ride"
PERFORMER "Brighter Side of Darkness"
INDEX 00 05:41:07
FILE "09 Summer Ride.wav" WAVE
INDEX 01 00:00:00
TRACK 10 AUDIO
TITLE "I'm the Guy"
PERFORMER "Brighter Side of Darkness"
INDEX 00 02:21:10
FILE "10 I'm the Guy.wav" WAVE
INDEX 01 00:00:00
TRACK 11 AUDIO
TITLE "Because I Love You [Bonus]"
PERFORMER "Brighter Side of Darkness"
INDEX 00 02:27:28
FILE "11 Because I Love You [Bonus].wav" WAVE
INDEX 01 00:00:00
TRACK 12 AUDIO
TITLE "Touchdown [Bonus]"
PERFORMER "Brighter Side of Darkness"
INDEX 00 03:38:15
FILE "12 Touchdown [Bonus].wav" WAVE
INDEX 01 00:00:00
Приватный:
Нет (DHT включён)
Размер:
295.05 Мб (309,377,545 байт) » файлов: 16
Участники:
0 раздают, 0 качают (0 участников всего)
Внешние участники:
2 раздают, 1 качают (3 участников всего) [ Обновить ]
Есть вопросы - пишите личное сообщение пользователю M0p94ok.
10:35
61
Нет комментариев. Ваш будет первым!