Поиск

(Jazz-Funk, Rhythm & Blues, Soul) [CD] Memphis Black - Soul Club - 1969 (2005), FLAC (image+.cue), lossless

(Jazz-Funk, Rhythm & Blues, Soul) [CD] Memphis Black - Soul Club - 1969 (2005), FLAC (image+.cue), lossless
Треклист:
Memphis Black / Soul Club
Жанр: Jazz-Funk, Rhythm & Blues, Soul
Носитель: CD
Страна-производитель диска (релиза): Germany
Год издания: 1969 (2005)
Издатель (лейбл): Sonorama Records
Номер по каталогу: Sonorama C-10
Страна исполнителя (группы): Germany
Аудиокодек: FLAC (*.flac)
Тип рипа: image+.cue
Битрейт аудио: lossless
Продолжительность: 00:29:16
Источник (релизер): собственный рип
Наличие сканов в содержимом раздачи: да
Треклист:
01. Why Don't You Play The Organ, Man
02. Stagger Lee
03. Chain Of Fools
04. Hey Joe
05. Amen
06. Whole Lotta Woman
07. Hang 'Em High
08. Soul Man
09. Sister Aretha
10. Gimme Little Sign
11. I'm A Midnight Mover
12. Soul Finger
 
Лог создания рипа
Exact Audio Copy V1.1 from 23. June 2015
Отчёт EAC об извлечении, выполненном 25. апреля 2016, 15:54
memphis black / soul club
Дисковод: ASUS DRW-24B3ST Adapter: 0 ID: 0
Режим чтения : Достоверность
Использование точного потока : Да
Отключение кэша аудио : Да
Использование указателей C2 : Нет
Коррекция смещения при чтении : 6
Способность читать области Lead-in и Lead-out : Нет
Заполнение пропущенных сэмплов тишиной : Да
Удаление блоков с тишиной в начале и конце : Нет
При вычислениях CRC использовались нулевые сэмплы : Да
Интерфейс : Установленный внешний ASPI-интерфейс
Выходной формат : Пользовательский кодировщик
Выбранный битрейт : 1024 kBit/s
Качество : Высокий
Добавление ID3-тега : Нет
Утилита сжатия : C:\Program Files (x86)\Exact Audio Copy\FLAC\FLAC.EXE
Дополнительные параметры : -6 -V -T "ARTIST=%artist%" -T "TITLE=%title%" -T "ALBUM=%albumtitle%" -T "DATE=%year%" -T "TRACKNUMBER=%tracknr%" -T "GENRE=%genre%" -T "COMMENT=%comment%" -T "BAND=%albuminterpret%" -T "ALBUMARTIST=%albuminterpret%" -T "COMPOSER=%composer%" %haslyrics%--tag-from-file=LYRICS="%lyricsfile%"%haslyrics% -T "DISCNUMBER=%cdnumber%" -T "TOTALDISCS=%totalcds%" -T "TOTALTRACKS=%numtracks%" %hascover%--picture="%coverfile%"%hascover% %source% -o %dest%
TOC извлечённого CD
Трек | Старт | Длительность | Начальный сектор | Конечный сектор
---------------------------------------------------------------------
1 | 0:00.00 | 2:37.49 | 0 | 11823
2 | 2:37.49 | 2:47.18 | 11824 | 24366
3 | 5:24.67 | 2:43.13 | 24367 | 36604
4 | 8:08.05 | 2:02.30 | 36605 | 45784
5 | 10:10.35 | 3:12.21 | 45785 | 60205
6 | 13:22.56 | 1:25.11 | 60206 | 66591
7 | 14:47.67 | 3:21.16 | 66592 | 81682
8 | 18:09.08 | 2:27.15 | 81683 | 92722
9 | 20:36.23 | 2:57.03 | 92723 | 106000
10 | 23:33.26 | 1:41.19 | 106001 | 113594
11 | 25:14.45 | 2:01.69 | 113595 | 122738
12 | 27:16.39 | 2:02.52 | 122739 | 131940
Характеристики диапазона извлечения и сообщения об ошибках
Выбранный диапазон
Имя файла E:\Torrents\Memphis Black - 1969 - Soul Club\memphis black - soul club.wav
Пиковый уровень 100.0 %
Скорость извлечения 7.3 X
Качество диапазона 100.0 %
CRC теста DC35DD0F
CRC копии DC35DD0F
Копирование... OK
Ошибок не произошло
Конец отчёта
==== Контрольная сумма отчёта A03E85419875709354199A92CE26AEDC3DFBD48E21F0BE11BAD61C8614840636 ====
 
Состав
Ingfried Hoffmann + Memphis Soul Band
Приватный:
Нет (DHT включён)
Размер:
212.49 Мб (222,815,136 байт) » файлов: 7
Участники:
0 раздают, 0 качают (0 участников всего)
Внешние участники:
2 раздают, 1 качают (3 участников всего) [ Обновить ]
Есть вопросы - пишите личное сообщение пользователю M0p94ok.
10:36
58
Нет комментариев. Ваш будет первым!