Поиск

(Jazz-Funk) [CD] Roy Porter Sound Machine - Inner Feelings - 1975 (2007 Japan Edition), FLAC (tracks+.cue), lossless

(Jazz-Funk) [CD] Roy Porter Sound Machine - Inner Feelings - 1975 (2007 Japan Edition), FLAC (tracks+.cue), lossless
Треклист:
Roy Porter Sound Machine - Inner Feelings
Жанр: Jazz-Funk
Носитель: CD
Страна-производитель диска (релиза): Япония
Год издания: 2007
Издатель (лейбл): P-Vine Records
Номер по каталогу: PCD-23859
Страна исполнителя (группы): США
Аудиокодек: FLAC (*.flac)
Тип рипа: tracks+.cue
Битрейт аудио: lossless
Продолжительность: 30:36
Источник (релизер): wikieup (what)
Наличие сканов в содержимом раздачи: нет
Треклист:
01. Party Time (Moore) - 3:51
02. Love You (Porter) - 3:16
03. Panama (Fulks) - 3:23
04. Jessica (Porter) - 4:15
05. Waver-Ing (Jobim) - 6:12
06. Funny Feelin' (Porter) - 2:38
07. Out on the Town Tonight (Huff) - 3:28
08. Givin' Me the Blues (Allen) - 3:33
 
Лог создания рипа
Exact Audio Copy V1.0 beta 3 from 29. August 2011
EAC extraction logfile from 20. June 2014, 14:18
Roy Porter Sound Machine / Inner Feelings [2007 Reissue]
Used drive : TSSTcorpDVD-ROM TS-U333B Adapter: 0 ID: 1
Read mode : Secure
Utilize accurate stream : Yes
Defeat audio cache : Yes
Make use of C2 pointers : No
Read offset correction : 6
Overread into Lead-In and Lead-Out : No
Fill up missing offset samples with silence : Yes
Delete leading and trailing silent blocks : No
Null samples used in CRC calculations : Yes
Used interface : Native Win32 interface for Win NT & 2000
Gap handling : Appended to previous track
Used output format : User Defined Encoder
Selected bitrate : 1024 kBit/s
Quality : High
Add ID3 tag : No
Command line compressor : C:\Program Files\Exact Audio Copy\Flac\flac.exe
Additional command line options : -8 -V -T "ARTIST=%artist%" -T "TITLE=%title%" -T "ALBUM=%albumtitle%" -T "DATE=%year%" -T "TRACKNUMBER=%tracknr%" -T "GENRE=%genre%" -T "PERFORMER=%albuminterpret%" -T "COMPOSER=%composer%" %haslyrics%--tag-from-file=LYRICS="%lyricsfile%"%haslyrics% -T "ALBUMARTIST=%albumartist%" -T "DISCNUMBER=%cdnumber%" -T "TOTALDISCS=%totalcds%" -T "TOTALTRACKS=%numtracks%" -T "COMMENT=%comment%" %source% -o %dest%
TOC of the extracted CD
Track | Start | Length | Start sector | End sector
---------------------------------------------------------
1 | 0:00.00 | 3:50.67 | 0 | 17316
2 | 3:50.67 | 3:16.05 | 17317 | 32021
3 | 7:06.72 | 3:23.18 | 32022 | 47264
4 | 10:30.15 | 4:14.57 | 47265 | 66371
5 | 14:44.72 | 6:12.15 | 66372 | 94286
6 | 20:57.12 | 2:37.48 | 94287 | 106109
7 | 23:34.60 | 3:27.45 | 106110 | 121679
8 | 27:02.30 | 3:32.57 | 121680 | 137636
Track 1
Filename C:\EAC Rips\01 - Party Time.wav
Pre-gap length 0:00:02.00
Peak level 98.8 %
Extraction speed 2.5 X
Track quality 100.0 %
Test CRC D9BE6D22
Copy CRC D9BE6D22
Accurately ripped (confidence 1) [7DCB7254] (AR v1)
Copy OK
Track 2
Filename C:\EAC Rips\02 - Love You.wav
Pre-gap length 0:00:02.40
Peak level 98.8 %
Extraction speed 2.7 X
Track quality 100.0 %
Test CRC 59BD1648
Copy CRC 59BD1648
Accurately ripped (confidence 1) [F0945D72] (AR v1)
Copy OK
Track 3
Filename C:\EAC Rips\03 - Panama.wav
Pre-gap length 0:00:02.40
Peak level 98.8 %
Extraction speed 2.9 X
Track quality 100.0 %
Test CRC BFA86CEC
Copy CRC BFA86CEC
Accurately ripped (confidence 1) [487DB19F] (AR v1)
Copy OK
Track 4
Filename C:\EAC Rips\04 - Jessica.wav
Pre-gap length 0:00:02.40
Peak level 98.8 %
Extraction speed 3.2 X
Track quality 100.0 %
Test CRC 32A2B94A
Copy CRC 32A2B94A
Accurately ripped (confidence 1) [BCC3148C] (AR v1)
Copy OK
Track 5
Filename C:\EAC Rips\05 - Waver-Ing.wav
Pre-gap length 0:00:02.40
Peak level 98.8 %
Extraction speed 3.2 X
Track quality 99.9 %
Test CRC 9C07FEB1
Copy CRC 9C07FEB1
Accurately ripped (confidence 1) [C17AE9E7] (AR v1)
Copy OK
Track 6
Filename C:\EAC Rips\06 - Funny Feelin'.wav
Pre-gap length 0:00:02.40
Peak level 98.8 %
Extraction speed 3.4 X
Track quality 100.0 %
Test CRC 2F725FB2
Copy CRC 2F725FB2
Accurately ripped (confidence 1) [3E04B2FA] (AR v1)
Copy OK
Track 7
Filename C:\EAC Rips\07 - Out On The Town Tonight.wav
Pre-gap length 0:00:02.40
Peak level 98.8 %
Extraction speed 3.7 X
Track quality 100.0 %
Test CRC A6401DEC
Copy CRC A6401DEC
Accurately ripped (confidence 1) [58A4C3A3] (AR v1)
Copy OK
Track 8
Filename C:\EAC Rips\08 - Givin' Me The Blues.wav
Pre-gap length 0:00:02.40
Peak level 98.8 %
Extraction speed 3.9 X
Track quality 100.0 %
Test CRC 8D9E471B
Copy CRC 8D9E471B
Accurately ripped (confidence 1) [6BBF03C9] (AR v1)
Copy OK
All tracks accurately ripped
No errors occurred
End of status report
==== Log checksum 7E08580134F0E10A8CBC3F4A184C8562BE73A94549756DF5B0F9BD4CE40481CF ====
 
Содержание индексной карты (.CUE)
REM GENRE Jazz
REM DATE 1975
REM DISCID 62072B08
REM COMMENT "ExactAudioCopy v1.0b3"
PERFORMER "Roy Porter Sound Machine"
TITLE "Inner Feelings"
FILE "01 - Party Time.wav" WAVE
TRACK 01 AUDIO
TITLE "Party Time"
PERFORMER "Roy Porter Sound Machine"
INDEX 01 00:00:00
TRACK 02 AUDIO
TITLE "Love You"
PERFORMER "Roy Porter Sound Machine"
INDEX 00 03:48:37
FILE "02 - Love You.wav" WAVE
INDEX 01 00:00:00
TRACK 03 AUDIO
TITLE "Panama"
PERFORMER "Roy Porter Sound Machine"
INDEX 00 03:13:50
FILE "03 - Panama.wav" WAVE
INDEX 01 00:00:00
TRACK 04 AUDIO
TITLE "Jessica"
PERFORMER "Roy Porter Sound Machine"
INDEX 00 03:20:63
FILE "04 - Jessica.wav" WAVE
INDEX 01 00:00:00
TRACK 05 AUDIO
TITLE "Waver-Ing"
PERFORMER "Roy Porter Sound Machine"
INDEX 00 04:12:27
FILE "05 - Waver-Ing.wav" WAVE
INDEX 01 00:00:00
TRACK 06 AUDIO
TITLE "Funny Feelin'"
PERFORMER "Roy Porter Sound Machine"
INDEX 00 06:09:60
FILE "06 - Funny Feelin'.wav" WAVE
INDEX 01 00:00:00
TRACK 07 AUDIO
TITLE "Out on the Town Tonight"
PERFORMER "Roy Porter Sound Machine"
INDEX 00 02:35:18
FILE "07 - Out on the Town Tonight.wav" WAVE
INDEX 01 00:00:00
TRACK 08 AUDIO
TITLE "Givin' Me the Blues"
PERFORMER "Roy Porter Sound Machine"
INDEX 00 03:25:15
FILE "08 - Givin' Me the Blues.wav" WAVE
INDEX 01 00:00:00
 
Отчет CUETools
[CUETools log; Date: 12.09.2015 0:18:02; Version: 2.1.5]
[CTDB TOCID: 8VOfeJYq6_C5OFuOZG69CK4HISo-] found.
Track | CTDB Status
1 | (3/3) Accurately ripped
2 | (3/3) Accurately ripped
3 | (3/3) Accurately ripped
4 | (3/3) Accurately ripped
5 | (3/3) Accurately ripped
6 | (3/3) Accurately ripped
7 | (3/3) Accurately ripped
8 | (3/3) Accurately ripped
[AccurateRip ID: 00098062-003fa9fe-62072b08] found.
Track [ CRC | V2 ] Status
01 [7dcb7254|de3386e6] (0+2/2) Accurately ripped
02 [f0945d72|7feb5426] (0+2/2) Accurately ripped
03 [487db19f|895077a0] (0+2/2) Accurately ripped
04 [bcc3148c|41425d43] (0+2/2) Accurately ripped
05 [c17ae9e7|239835a3] (0+2/2) Accurately ripped
06 [3e04b2fa|906c26ff] (0+2/2) Accurately ripped
07 [58a4c3a3|4dfb01bb] (0+2/2) Accurately ripped
08 [6bbf03c9|138d5ce2] (0+2/2) Accurately ripped
Track Peak [ CRC32 ] [W/O NULL] [ LOG ]
-- 98,8 [F639A4B1] [49DE7A3E]
01 98,8 [D9BE6D22] [50BD3A29] CRC32
02 98,8 [59BD1648] [F723D153] CRC32
03 98,8 [BFA86CEC] [84C5C000] CRC32
04 98,8 [32A2B94A] [8CF465D4] CRC32
05 98,8 [9C07FEB1] [BB75E612] CRC32
06 98,8 [2F725FB2] [38B8387D] CRC32
07 98,8 [A6401DEC] [3DBCBAA0] CRC32
08 98,8 [8D9E471B] [0A51AB3E] CRC32
 
AllMusic Review by Jason Ankeny
Four years after his remarkable private-press release Jessica, Roy Porter resurfaced with Inner Feelings, which updates and expands the wonderfully eccentric jazz-funk sensibilities of its predecessor via deeper, harder-hitting grooves, more ambitious arrangements and even vocals. The sheer soulfulness of Porter's drumming never fails to astound, and while his rhythms and melodies possess an interior logic solely their own, the music is undeniably funky, complete with moments of otherworldly beauty. And though Porter isn't much of a singer in the conventional sense, the urgency and passion of his performance makes up for his technical flaws. The title Inner Feelings may be a bit hokey, but this is clearly the art of a man desperate to articulate his perspective on the world around him. Long traded for obscene sums on the secondary market, Inner Feelings was finally reissued on CD in late 2006.
 
Состав
Roy Porter - drums, percussion, vocals
Hense Powell - trumpet, arranger
Hugh Bell - trumpet, vocals
Wallace Huff - trombone
Jack Fulks - tenor saxophone, flute
Prince Harrison, Charlemagne Payne, Jimmy Allen - tenor saxophone
Clyde Dunn - baritone saxophone
Tollie Moore - electric piano
Randy Piggy, Herman Mitchell, Harold Grant - guitar
Charles Jones - Fender bass
Clarence Daniels - bass
Arne Frager - bass, Arp synthesizer
Roy Thompson, Demond Gates - drums
Frank Mastrapa - congas, percussion
Recorded at Spectrum Studios, Venice, CA in March 1975.
Приватный:
Нет (DHT включён)
Размер:
201.90 Мб (211,710,511 байт) » файлов: 14
Участники:
0 раздают, 0 качают (0 участников всего)
Внешние участники:
2 раздают, 1 качают (3 участников всего) [ Обновить ]
No seeders - write a personal message to user M0p94ok. Нет сидеров - пишите личное сообщение пользователю M0p94ok.
07:51
103
Нет комментариев. Ваш будет первым!