Поиск

(Funk / Soul / Instrumental) Menahan Street Band - The Crossing - 2012, FLAC (tracks+.cue), lossless

(Funk / Soul / Instrumental) Menahan Street Band - The Crossing - 2012, FLAC (tracks+.cue), lossless
Треклист:
Menahan Street Band / The Crossing
Жанр: Funk / Soul / Instrumental
Носитель: CD
Год издания: 2012
Издатель (лейбл): Dunham
Номер по каталогу: DUN-1003
Страна исполнителя (группы): USA
Аудиокодек: FLAC (*.flac)
Тип рипа: tracks+.cue
Битрейт аудио: lossless
Продолжительность: 00:39:00
Источник (релизер): What.cd
Наличие сканов в содержимом раздачи: да
Треклист:
01. The Crossing
02. Lights Out
03. Keep Coming Back
04. Three Faces
05. Sleight of Hand
06. Everyday a Dream
07. Seven Is the Wind
08. Bullet for the Bagman
09. Driftwood
10. Ivory and Blue
11. Ivory and Blue (Reprise)
 
Лог создания рипа
Exact Audio Copy V1.0 beta 3 from 29. August 2011
EAC extraction logfile from 7. November 2012, 14:43
Menahan Street Band / The Crossing
Used drive : MATSHITADVD-R UJ-857E Adapter: 0 ID: 0
Read mode : Secure
Utilize accurate stream : Yes
Defeat audio cache : Yes
Make use of C2 pointers : No
Read offset correction : 102
Overread into Lead-In and Lead-Out : No
Fill up missing offset samples with silence : Yes
Delete leading and trailing silent blocks : No
Null samples used in CRC calculations : Yes
Used interface : Native Win32 interface for Win NT & 2000
Gap handling : Appended to previous track
Used output format : User Defined Encoder
Selected bitrate : 1024 kBit/s
Quality : High
Add ID3 tag : No
Command line compressor : C:\Program Files\FLAC\flac.exe
Additional command line options : -8 -V -T "ARTIST=%artist%" -T "TITLE=%title%" -T "ALBUM=%albumtitle%" -T "DATE=%year%" -T "TRACKNUMBER=%tracknr%" -T "GENRE=%genre%" -T "PERFORMER=%albuminterpret%" -T "COMPOSER=%composer%" %haslyrics%--tag-from-file=LYRICS="%lyricsfile%"%haslyrics% -T "ALBUMARTIST=%albumartist%" -T "DISCNUMBER=%cdnumber%" -T "TOTALDISCS=%totalcds%" -T "TOTALTRACKS=%numtracks%" -T "COMMENT=%comment%" %source% -o %dest%
TOC of the extracted CD
Track | Start | Length | Start sector | End sector
---------------------------------------------------------
1 | 0:00.00 | 5:04.51 | 0 | 22850
2 | 5:04.51 | 2:35.46 | 22851 | 34521
3 | 7:40.22 | 3:16.64 | 34522 | 49285
4 | 10:57.11 | 4:34.59 | 49286 | 69894
5 | 15:31.70 | 3:00.74 | 69895 | 83468
6 | 18:32.69 | 3:51.00 | 83469 | 100793
7 | 22:23.69 | 5:06.52 | 100794 | 123795
8 | 27:30.46 | 2:57.16 | 123796 | 137086
9 | 30:27.62 | 3:39.21 | 137087 | 153532
10 | 34:07.08 | 3:36.23 | 153533 | 169755
11 | 37:43.31 | 1:05.02 | 169756 | 174632
Track 1
Filename K:\My FLAC Rips\Menahan Street Band\ 01-Menahan Street Band-The Crossing.wav
Pre-gap length 0:00:02.00
Peak level 98.8 %
Extraction speed 1.3 X
Track quality 99.9 %
Test CRC FE5385EE
Copy CRC FE5385EE
Track not present in AccurateRip database
Copy OK
Track 2
Filename K:\My FLAC Rips\Menahan Street Band\ 02-Menahan Street Band-Lights Out.wav
Peak level 98.8 %
Extraction speed 1.5 X
Track quality 100.0 %
Test CRC 6B1F6331
Copy CRC 6B1F6331
Track not present in AccurateRip database
Copy OK
Track 3
Filename K:\My FLAC Rips\Menahan Street Band\ 03-Menahan Street Band-Keep Coming Back.wav
Peak level 98.8 %
Extraction speed 1.4 X
Track quality 99.9 %
Test CRC 8F42792D
Copy CRC 8F42792D
Track not present in AccurateRip database
Copy OK
Track 4
Filename K:\My FLAC Rips\Menahan Street Band\ 04-Menahan Street Band-Three Faces.wav
Peak level 98.8 %
Extraction speed 1.9 X
Track quality 100.0 %
Test CRC D259F267
Copy CRC D259F267
Track not present in AccurateRip database
Copy OK
Track 5
Filename K:\My FLAC Rips\Menahan Street Band\ 05-Menahan Street Band-Sleight of Hand.wav
Peak level 98.8 %
Extraction speed 1.9 X
Track quality 100.0 %
Test CRC F0AE1860
Copy CRC F0AE1860
Track not present in AccurateRip database
Copy OK
Track 6
Filename K:\My FLAC Rips\Menahan Street Band\ 06-Menahan Street Band-Everyday a Dream.wav
Peak level 98.8 %
Extraction speed 2.1 X
Track quality 100.0 %
Test CRC 2562CE8A
Copy CRC 2562CE8A
Track not present in AccurateRip database
Copy OK
Track 7
Filename K:\My FLAC Rips\Menahan Street Band\ 07-Menahan Street Band-Seven Is the Wind.wav
Peak level 98.8 %
Extraction speed 2.3 X
Track quality 100.0 %
Test CRC EFA8B847
Copy CRC EFA8B847
Track not present in AccurateRip database
Copy OK
Track 8
Filename K:\My FLAC Rips\Menahan Street Band\ 08-Menahan Street Band-Bullet for the Bagman.wav
Peak level 98.8 %
Extraction speed 2.2 X
Track quality 100.0 %
Test CRC 335D1214
Copy CRC 335D1214
Track not present in AccurateRip database
Copy OK
Track 9
Filename K:\My FLAC Rips\Menahan Street Band\ 09-Menahan Street Band-Driftwood.wav
Peak level 98.8 %
Extraction speed 2.4 X
Track quality 100.0 %
Test CRC BAABA13E
Copy CRC BAABA13E
Track not present in AccurateRip database
Copy OK
Track 10
Filename K:\My FLAC Rips\Menahan Street Band\ 10-Menahan Street Band-Ivory and Blue.wav
Peak level 98.8 %
Extraction speed 2.4 X
Track quality 100.0 %
Test CRC 06D32D03
Copy CRC 06D32D03
Track not present in AccurateRip database
Copy OK
Track 11
Filename K:\My FLAC Rips\Menahan Street Band\ 11-Menahan Street Band-Ivory and Blue (Reprise).wav
Peak level 98.8 %
Extraction speed 1.9 X
Track quality 100.0 %
Test CRC F716097D
Copy CRC F716097D
Track not present in AccurateRip database
Copy OK
None of the tracks are present in the AccurateRip database
No errors occurred
End of status report
==== Log checksum 802F3A92C16212116074BF363095DA0ED2FA51C678972E491F8C0FDA18275CE5 ====
 
Содержание индексной карты (.CUE)
REM GENRE Funk
REM DATE 2012
REM DISCID 8E09180B
REM COMMENT "ExactAudioCopy v1.0b3"
PERFORMER "Menahan Street Band"
TITLE "The Crossing"
FILE "01-Menahan Street Band-The Crossing.wav" WAVE
TRACK 01 AUDIO
TITLE "The Crossing"
PERFORMER "Menahan Street Band"
INDEX 01 00:00:00
FILE "02-Menahan Street Band-Lights Out.wav" WAVE
TRACK 02 AUDIO
TITLE "Lights Out"
PERFORMER "Menahan Street Band"
INDEX 01 00:00:00
FILE "03-Menahan Street Band-Keep Coming Back.wav" WAVE
TRACK 03 AUDIO
TITLE "Keep Coming Back"
PERFORMER "Menahan Street Band"
INDEX 01 00:00:00
FILE "04-Menahan Street Band-Three Faces.wav" WAVE
TRACK 04 AUDIO
TITLE "Three Faces"
PERFORMER "Menahan Street Band"
INDEX 01 00:00:00
FILE "05-Menahan Street Band-Sleight of Hand.wav" WAVE
TRACK 05 AUDIO
TITLE "Sleight of Hand"
PERFORMER "Menahan Street Band"
INDEX 01 00:00:00
FILE "06-Menahan Street Band-Everyday a Dream.wav" WAVE
TRACK 06 AUDIO
TITLE "Everyday a Dream"
PERFORMER "Menahan Street Band"
INDEX 01 00:00:00
FILE "07-Menahan Street Band-Seven Is the Wind.wav" WAVE
TRACK 07 AUDIO
TITLE "Seven Is the Wind"
PERFORMER "Menahan Street Band"
INDEX 01 00:00:00
FILE "08-Menahan Street Band-Bullet for the Bagman.wav" WAVE
TRACK 08 AUDIO
TITLE "Bullet for the Bagman"
PERFORMER "Menahan Street Band"
INDEX 01 00:00:00
FILE "09-Menahan Street Band-Driftwood.wav" WAVE
TRACK 09 AUDIO
TITLE "Driftwood"
PERFORMER "Menahan Street Band"
INDEX 01 00:00:00
FILE "10-Menahan Street Band-Ivory and Blue.wav" WAVE
TRACK 10 AUDIO
TITLE "Ivory and Blue"
PERFORMER "Menahan Street Band"
INDEX 01 00:00:00
FILE "11-Menahan Street Band-Ivory and Blue (Reprise).wav" WAVE
TRACK 11 AUDIO
TITLE "Ivory and Blue (Reprise)"
PERFORMER "Menahan Street Band"
INDEX 01 00:00:00
Приватный:
Нет (DHT включён)
Размер:
251.87 Мб (264,100,087 байт) » файлов: 18
Участники:
0 раздают, 0 качают (0 участников всего)
Внешние участники:
5 раздают, 1 качают (6 участников всего) [ Обновить ]
Есть вопросы - пишите личное сообщение пользователю M0p94ok.
07:49
71
Нет комментариев. Ваш будет первым!