Поиск

2012 Roy Porter Sound Machine - The Story of Roy Porter Sound Machine 1971-1975 {Tramp} [CD]

2012 Roy Porter Sound Machine - The Story of Roy Porter Sound Machine 1971-1975 {Tramp} [CD]
Стили:
Треклист:

01. Jessica (vocal) (Porter) - 4:11
02. Funky Twitch (Moore) - 2:35
03. Hip City (Fulks) - 4:21
04. Waver-Ing (Jobim) - 6:09
05. Hense-forth (Powell) - 6:00
06. Jessica (instrumental) (Porter) - 7:36
07. Love You (Porter) - 3:13
08. Ohh-la-la (Porter-Davis) - 4:21
09. Funny Feelin' (Porter) - 4:38
10. Drums for Daryl (Porter) - 8:12
11. Wow (Porter) - 6:42
12. Panama (vocal) (Fulks) - 3:37
13. Party Time (Moore) - 3:47
14. Panama (instrumental) (Fulks) - 3:20
15. Out on the Town Tonight (Huff) - 3:25
16. Givin' Me the Blues (Allen) - 3:32

Носитель: WEB
Страна-производитель диска (релиза): США
Год издания: 2012
Издатель (лейбл): Tramp Records
Аудиокодек: FLAC (*.flac)
Тип рипа: tracks
Битрейт аудио: lossless
Продолжительность: 1:15:39
Источник (релизер): stoichie (what)
Наличие сканов в содержимом раздачи: нет

Лог создания рипа
X Lossless Decoder version 20161007 (149.3)

XLD extraction logfile from 2017-02-14 20:49:34 -0500

Roy Porter Sound Machine / The Story Of (1971-1975)

Used drive : Apple SuperDrive (revision 2.00)
Media type : Pressed CD

Ripper mode             : XLD Secure Ripper
Disable audio cache     : OK for the drive with a cache less than 1375KiB
Make use of C2 pointers : NO
Read offset correction  : 6
Max retry count         : 20
Gap status              : Analyzed, Appended (except HTOA)

TOC of the extracted CD
     Track |   Start  |  Length  | Start sector | End sector
    ---------------------------------------------------------
        1  | 00:00:00 | 04:13:15 |         0    |    18989
        2  | 04:13:15 | 04:39:71 |     18990    |    39985
        3  | 08:53:11 | 04:23:16 |     39986    |    59726
        4  | 13:16:27 | 06:11:33 |     59727    |    87584
        5  | 19:27:60 | 06:02:04 |     87585    |   114738
        6  | 25:29:64 | 07:38:23 |    114739    |   149111
        7  | 33:08:12 | 03:15:19 |    149112    |   163755
        8  | 36:23:31 | 04:22:61 |    163756    |   183466
        9  | 40:46:17 | 02:37:16 |    183467    |   195257
       10  | 43:23:33 | 08:14:06 |    195258    |   232313
       11  | 51:37:39 | 06:43:44 |    232314    |   262582
       12  | 58:21:08 | 03:39:35 |    262583    |   279042
       13  | 62:00:43 | 03:49:12 |    279043    |   296229
       14  | 65:49:55 | 03:22:27 |    296230    |   311406
       15  | 69:12:07 | 03:26:61 |    311407    |   326917
       16  | 72:38:68 | 03:31:39 |    326918    |   342781

AccurateRip Summary (DiscID: 002ec059-022fdcc1-eb11da10)
    Track 01 : OK (v2, confidence 1/1)
    Track 02 : OK (v2, confidence 1/1)
    Track 03 : OK (v2, confidence 1/1)
    Track 04 : OK (v2, confidence 1/1)
    Track 05 : OK (v2, confidence 1/1)
    Track 06 : OK (v2, confidence 1/1)
    Track 07 : OK (v2, confidence 1/1)
    Track 08 : OK (v2, confidence 1/1)
    Track 09 : OK (v2, confidence 1/1)
    Track 10 : OK (v2, confidence 1/1)
    Track 11 : OK (v2, confidence 1/1)
    Track 12 : OK (v2, confidence 1/1)
    Track 13 : OK (v2, confidence 1/1)
    Track 14 : OK (v2, confidence 1/1)
    Track 15 : OK (v2, confidence 1/1)
    Track 16 : OK (v2, confidence 1/1)
        ->All tracks accurately ripped.

All Tracks
    Album gain               : -10.92 dB
    Peak                     : 0.986603
    Statistics
        Read error                           : 0
        Jitter error (maybe fixed)           : 0
        Retry sector count                   : 0
        Damaged sector count                 : 0

Track 01
    Filename : /Users/Erik/Desktop/Rips/Roy Porter Sound Machine - The Story Of (1971-1975) (2012) [FLAC]/01 Jessica (vocal).flac
    Pre-gap length : 00:02:00

    Track gain               : -10.43 dB
    Peak                     : 0.985352
    CRC32 hash (test run)    : BF527062
    CRC32 hash               : BF527062
    CRC32 hash (skip zero)   : 1411C9CD
    AccurateRip v1 signature : 0C7D4675
    AccurateRip v2 signature : 99E330DB
        ->Accurately ripped (v2, confidence 1/1)
    Statistics
        Read error                           : 0
        Jitter error (maybe fixed)           : 0
        Retry sector count                   : 0
        Damaged sector count                 : 0

Track 02
    Filename : /Users/Erik/Desktop/Rips/Roy Porter Sound Machine - The Story Of (1971-1975) (2012) [FLAC]/02 Funky Twitch.flac
    Pre-gap length : 00:02:00

    Track gain               : -8.80 dB
    Peak                     : 0.985382
    CRC32 hash (test run)    : 9B8659DD
    CRC32 hash               : 9B8659DD
    CRC32 hash (skip zero)   : 9EDDD9C6
    AccurateRip v1 signature : E5F54CC7
    AccurateRip v2 signature : C852341D
        ->Accurately ripped (v2, confidence 1/1)
    Statistics
        Read error                           : 0
        Jitter error (maybe fixed)           : 0
        Retry sector count                   : 0
        Damaged sector count                 : 0

Track 03
    Filename : /Users/Erik/Desktop/Rips/Roy Porter Sound Machine - The Story Of (1971-1975) (2012) [FLAC]/03 Hip City.flac
    Pre-gap length : 00:02:00

    Track gain               : -11.10 dB
    Peak                     : 0.986572
    CRC32 hash (test run)    : 94ACE29D
    CRC32 hash               : 94ACE29D
    CRC32 hash (skip zero)   : A474C2B6
    AccurateRip v1 signature : FD54EEAE
    AccurateRip v2 signature : FC9B3D33
        ->Accurately ripped (v2, confidence 1/1)
    Statistics
        Read error                           : 0
        Jitter error (maybe fixed)           : 0
        Retry sector count                   : 0
        Damaged sector count                 : 0

Track 04
    Filename : /Users/Erik/Desktop/Rips/Roy Porter Sound Machine - The Story Of (1971-1975) (2012) [FLAC]/04 Waver-ing.flac
    Pre-gap length : 00:02:00

    Track gain               : -9.86 dB
    Peak                     : 0.985046
    CRC32 hash (test run)    : 4B4875C9
    CRC32 hash               : 4B4875C9
    CRC32 hash (skip zero)   : FC2AD7AB
    AccurateRip v1 signature : C191F22D
    AccurateRip v2 signature : 2D11FEB6
        ->Accurately ripped (v2, confidence 1/1)
    Statistics
        Read error                           : 0
        Jitter error (maybe fixed)           : 0
        Retry sector count                   : 0
        Damaged sector count                 : 0

Track 05
    Filename : /Users/Erik/Desktop/Rips/Roy Porter Sound Machine - The Story Of (1971-1975) (2012) [FLAC]/05 Hense-forth.flac
    Pre-gap length : 00:02:00

    Track gain               : -10.68 dB
    Peak                     : 0.985687
    CRC32 hash (test run)    : 9F58ABFC
    CRC32 hash               : 9F58ABFC
    CRC32 hash (skip zero)   : 40A9EF7E
    AccurateRip v1 signature : 5A7BDF90
    AccurateRip v2 signature : 58E66F4A
        ->Accurately ripped (v2, confidence 1/1)
    Statistics
        Read error                           : 0
        Jitter error (maybe fixed)           : 0
        Retry sector count                   : 0
        Damaged sector count                 : 0

Track 06
    Filename : /Users/Erik/Desktop/Rips/Roy Porter Sound Machine - The Story Of (1971-1975) (2012) [FLAC]/06 Jessica (instrumental).flac
    Pre-gap length : 00:02:00

    Track gain               : -10.51 dB
    Peak                     : 0.986603
    CRC32 hash (test run)    : 07212483
    CRC32 hash               : 07212483
    CRC32 hash (skip zero)   : C0BBFE00
    AccurateRip v1 signature : 51AA3063
    AccurateRip v2 signature : 058C1582
        ->Accurately ripped (v2, confidence 1/1)
    Statistics
        Read error                           : 0
        Jitter error (maybe fixed)           : 0
        Retry sector count                   : 0
        Damaged sector count                 : 0

Track 07
    Filename : /Users/Erik/Desktop/Rips/Roy Porter Sound Machine - The Story Of (1971-1975) (2012) [FLAC]/07 Love You.flac
    Pre-gap length : 00:02:00

    Track gain               : -11.45 dB
    Peak                     : 0.986481
    CRC32 hash (test run)    : BD22A209
    CRC32 hash               : BD22A209
    CRC32 hash (skip zero)   : 7D12C3BA
    AccurateRip v1 signature : 8B12F522
    AccurateRip v2 signature : CFB5AE55
        ->Accurately ripped (v2, confidence 1/1)
    Statistics
        Read error                           : 0
        Jitter error (maybe fixed)           : 0
        Retry sector count                   : 0
        Damaged sector count                 : 0

Track 08
    Filename : /Users/Erik/Desktop/Rips/Roy Porter Sound Machine - The Story Of (1971-1975) (2012) [FLAC]/08 Ohh-la-la.flac
    Pre-gap length : 00:02:00

    Track gain               : -11.09 dB
    Peak                     : 0.985199
    CRC32 hash (test run)    : EC4BBF41
    CRC32 hash               : EC4BBF41
    CRC32 hash (skip zero)   : C2CC7449
    AccurateRip v1 signature : B8E88903
    AccurateRip v2 signature : 3A74CBA2
        ->Accurately ripped (v2, confidence 1/1)
    Statistics
        Read error                           : 0
        Jitter error (maybe fixed)           : 0
        Retry sector count                   : 0
        Damaged sector count                 : 0

Track 09
    Filename : /Users/Erik/Desktop/Rips/Roy Porter Sound Machine - The Story Of (1971-1975) (2012) [FLAC]/09 Funny Feelin'.flac
    Pre-gap length : 00:02:00

    Track gain               : -12.37 dB
    Peak                     : 0.986389
    CRC32 hash (test run)    : 14B030D9
    CRC32 hash               : 14B030D9
    CRC32 hash (skip zero)   : 2639FFA0
    AccurateRip v1 signature : C3D45AB1
    AccurateRip v2 signature : EF2B1923
        ->Accurately ripped (v2, confidence 1/1)
    Statistics
        Read error                           : 0
        Jitter error (maybe fixed)           : 0
        Retry sector count                   : 0
        Damaged sector count                 : 0

Track 10
    Filename : /Users/Erik/Desktop/Rips/Roy Porter Sound Machine - The Story Of (1971-1975) (2012) [FLAC]/10 Drums For Daryl.flac
    Pre-gap length : 00:02:00

    Track gain               : -9.36 dB
    Peak                     : 0.986115
    CRC32 hash (test run)    : F2A79E24
    CRC32 hash               : F2A79E24
    CRC32 hash (skip zero)   : 82A1F42B
    AccurateRip v1 signature : 7BF36DD3
    AccurateRip v2 signature : 890A6EC5
        ->Accurately ripped (v2, confidence 1/1)
    Statistics
        Read error                           : 0
        Jitter error (maybe fixed)           : 0
        Retry sector count                   : 0
        Damaged sector count                 : 0

Track 11
    Filename : /Users/Erik/Desktop/Rips/Roy Porter Sound Machine - The Story Of (1971-1975) (2012) [FLAC]/11 Wow.flac
    Pre-gap length : 00:02:00

    Track gain               : -11.34 dB
    Peak                     : 0.986603
    CRC32 hash (test run)    : 770C865A
    CRC32 hash               : 770C865A
    CRC32 hash (skip zero)   : FC3210FC
    AccurateRip v1 signature : B828ACFF
    AccurateRip v2 signature : C28CE7CB
        ->Accurately ripped (v2, confidence 1/1)
    Statistics
        Read error                           : 0
        Jitter error (maybe fixed)           : 0
        Retry sector count                   : 0
        Damaged sector count                 : 0

Track 12
    Filename : /Users/Erik/Desktop/Rips/Roy Porter Sound Machine - The Story Of (1971-1975) (2012) [FLAC]/12 Panama (vocal).flac
    Pre-gap length : 00:02:00

    Track gain               : -9.47 dB
    Peak                     : 0.985229
    CRC32 hash (test run)    : 945C3124
    CRC32 hash               : 945C3124
    CRC32 hash (skip zero)   : 0EE63247
    AccurateRip v1 signature : B85896A1
    AccurateRip v2 signature : 2A285214
        ->Accurately ripped (v2, confidence 1/1)
    Statistics
        Read error                           : 0
        Jitter error (maybe fixed)           : 0
        Retry sector count                   : 0
        Damaged sector count                 : 0

Track 13
    Filename : /Users/Erik/Desktop/Rips/Roy Porter Sound Machine - The Story Of (1971-1975) (2012) [FLAC]/13 Party Time.flac
    Pre-gap length : 00:02:00

    Track gain               : -10.37 dB
    Peak                     : 0.986115
    CRC32 hash (test run)    : 4E5DA279
    CRC32 hash               : 4E5DA279
    CRC32 hash (skip zero)   : 8E269377
    AccurateRip v1 signature : A499B1BA
    AccurateRip v2 signature : 7CA37AFA
        ->Accurately ripped (v2, confidence 1/1)
    Statistics
        Read error                           : 0
        Jitter error (maybe fixed)           : 0
        Retry sector count                   : 0
        Damaged sector count                 : 0

Track 14
    Filename : /Users/Erik/Desktop/Rips/Roy Porter Sound Machine - The Story Of (1971-1975) (2012) [FLAC]/14 Panama (instrumental).flac
    Pre-gap length : 00:02:00

    Track gain               : -10.62 dB
    Peak                     : 0.985901
    CRC32 hash (test run)    : 6B326A23
    CRC32 hash               : 6B326A23
    CRC32 hash (skip zero)   : D618773F
    AccurateRip v1 signature : A6358071
    AccurateRip v2 signature : F68B5DF8
        ->Accurately ripped (v2, confidence 1/1)
    Statistics
        Read error                           : 0
        Jitter error (maybe fixed)           : 0
        Retry sector count                   : 0
        Damaged sector count                 : 0

Track 15
    Filename : /Users/Erik/Desktop/Rips/Roy Porter Sound Machine - The Story Of (1971-1975) (2012) [FLAC]/15 Out On The Town Tonight.flac
    Pre-gap length : 00:02:00

    Track gain               : -12.23 dB
    Peak                     : 0.986603
    CRC32 hash (test run)    : CF0E0C9C
    CRC32 hash               : CF0E0C9C
    CRC32 hash (skip zero)   : A1E93C9C
    AccurateRip v1 signature : 0A4B1561
    AccurateRip v2 signature : AA452757
        ->Accurately ripped (v2, confidence 1/1)
    Statistics
        Read error                           : 0
        Jitter error (maybe fixed)           : 0
        Retry sector count                   : 0
        Damaged sector count                 : 0

Track 16
    Filename : /Users/Erik/Desktop/Rips/Roy Porter Sound Machine - The Story Of (1971-1975) (2012) [FLAC]/16 Givin' Me The Blues.flac
    Pre-gap length : 00:02:00

    Track gain               : -11.65 dB
    Peak                     : 0.984894
    CRC32 hash (test run)    : 24CBA812
    CRC32 hash               : 24CBA812
    CRC32 hash (skip zero)   : 78EA9254
    AccurateRip v1 signature : 909079B8
    AccurateRip v2 signature : 64685D1B
        ->Accurately ripped (v2, confidence 1/1)
    Statistics
        Read error                           : 0
        Jitter error (maybe fixed)           : 0
        Retry sector count                   : 0
        Damaged sector count                 : 0

No errors occurred

End of status report

-----BEGIN XLD SIGNATURE-----
hmMPgBItslTD6uXVG9tA7D_27y468WN9shpFhaaa1MokcDPzF3bEM0W8ocTLQAD9Sv.H_NI0PbllOdwpcK3KEQp7g1Z48syUxOCOFB4
-----END XLD SIGNATURE-----
Содержание индексной карты (.CUE)
TITLE "The Story of Roy Porter Sound Machine (1971-1975)"
PERFORMER "Roy Porter Sound Machine"
REM GENRE "Jazz"
REM DATE "2012"
REM DISCID EB11DA10
REM REPLAYGAIN_ALBUM_GAIN -10.92 dB
REM REPLAYGAIN_ALBUM_PEAK 0.986603
FILE "01 - Jessica (vocal).flac" WAVE
  TRACK 01 AUDIO
    TITLE "Jessica (vocal)"
    ISRC DELO20910184
    REM REPLAYGAIN_TRACK_GAIN -10.43 dB
    REM REPLAYGAIN_TRACK_PEAK 0.985352
    INDEX 01 00:00:00
  TRACK 02 AUDIO
    TITLE "Funky Twitch"
    ISRC DELO20910185
    REM REPLAYGAIN_TRACK_GAIN -8.80 dB
    REM REPLAYGAIN_TRACK_PEAK 0.985382
    INDEX 00 04:11:15
FILE "02 - Funky Twitch.flac" WAVE
    INDEX 01 00:00:00
  TRACK 03 AUDIO
    TITLE "Hip City"
    ISRC DELO20910186
    REM REPLAYGAIN_TRACK_GAIN -11.10 dB
    REM REPLAYGAIN_TRACK_PEAK 0.986572
    INDEX 00 04:37:71
FILE "03 - Hip City.flac" WAVE
    INDEX 01 00:00:00
  TRACK 04 AUDIO
    TITLE "Waver-Ing"
    ISRC DELO20910187
    REM REPLAYGAIN_TRACK_GAIN -9.86 dB
    REM REPLAYGAIN_TRACK_PEAK 0.985046
    INDEX 00 04:21:16
FILE "04 - Waver-Ing.flac" WAVE
    INDEX 01 00:00:00
  TRACK 05 AUDIO
    TITLE "Hense-forth"
    ISRC DELO20910188
    REM REPLAYGAIN_TRACK_GAIN -10.68 dB
    REM REPLAYGAIN_TRACK_PEAK 0.985687
    INDEX 00 06:09:33
FILE "05 - Hense-forth.flac" WAVE
    INDEX 01 00:00:00
  TRACK 06 AUDIO
    TITLE "Jessica (instrumental)"
    ISRC DELO20910189
    REM REPLAYGAIN_TRACK_GAIN -10.51 dB
    REM REPLAYGAIN_TRACK_PEAK 0.986603
    INDEX 00 06:00:04
FILE "06 - Jessica (instrumental).flac" WAVE
    INDEX 01 00:00:00
  TRACK 07 AUDIO
    TITLE "Love You"
    ISRC DELO20910190
    REM REPLAYGAIN_TRACK_GAIN -11.45 dB
    REM REPLAYGAIN_TRACK_PEAK 0.986481
    INDEX 00 07:36:23
FILE "07 - Love You.flac" WAVE
    INDEX 01 00:00:00
  TRACK 08 AUDIO
    TITLE "Ohh-la-la"
    ISRC DELO20910191
    REM REPLAYGAIN_TRACK_GAIN -11.09 dB
    REM REPLAYGAIN_TRACK_PEAK 0.985199
    INDEX 00 03:13:19
FILE "08 - Ohh-la-la.flac" WAVE
    INDEX 01 00:00:00
  TRACK 09 AUDIO
    TITLE "Funny Feelin'"
    ISRC DELO20910192
    REM REPLAYGAIN_TRACK_GAIN -12.37 dB
    REM REPLAYGAIN_TRACK_PEAK 0.986389
    INDEX 00 04:20:61
FILE "09 - Funny Feelin'.flac" WAVE
    INDEX 01 00:00:00
  TRACK 10 AUDIO
    TITLE "Drums for Daryl"
    ISRC DELO20910193
    REM REPLAYGAIN_TRACK_GAIN -9.36 dB
    REM REPLAYGAIN_TRACK_PEAK 0.986115
    INDEX 00 02:35:16
FILE "10 - Drums for Daryl.flac" WAVE
    INDEX 01 00:00:00
  TRACK 11 AUDIO
    TITLE "Wow"
    ISRC DELO20910194
    REM REPLAYGAIN_TRACK_GAIN -11.34 dB
    REM REPLAYGAIN_TRACK_PEAK 0.986603
    INDEX 00 08:12:06
FILE "11 - Wow.flac" WAVE
    INDEX 01 00:00:00
  TRACK 12 AUDIO
    TITLE "Panama (vocal)"
    ISRC DELO20910195
    REM REPLAYGAIN_TRACK_GAIN -9.47 dB
    REM REPLAYGAIN_TRACK_PEAK 0.985229
    INDEX 00 06:41:44
FILE "12 - Panama (vocal).flac" WAVE
    INDEX 01 00:00:00
  TRACK 13 AUDIO
    TITLE "Party Time"
    ISRC DELO20910196
    REM REPLAYGAIN_TRACK_GAIN -10.37 dB
    REM REPLAYGAIN_TRACK_PEAK 0.986115
    INDEX 00 03:37:35
FILE "13 - Party Time.flac" WAVE
    INDEX 01 00:00:00
  TRACK 14 AUDIO
    TITLE "Panama (instrumental)"
    ISRC DELO20910197
    REM REPLAYGAIN_TRACK_GAIN -10.62 dB
    REM REPLAYGAIN_TRACK_PEAK 0.985901
    INDEX 00 03:47:12
FILE "14 - Panama (instrumental).flac" WAVE
    INDEX 01 00:00:00
  TRACK 15 AUDIO
    TITLE "Out on the Town Tonight"
    ISRC DELO20910198
    REM REPLAYGAIN_TRACK_GAIN -12.23 dB
    REM REPLAYGAIN_TRACK_PEAK 0.986603
    INDEX 00 03:20:27
FILE "15 - Out on the Town Tonight.flac" WAVE
    INDEX 01 00:00:00
  TRACK 16 AUDIO
    TITLE "Givin' Me the Blues"
    ISRC DELO20910199
    REM REPLAYGAIN_TRACK_GAIN -11.65 dB
    REM REPLAYGAIN_TRACK_PEAK 0.984894
    INDEX 00 03:24:61
FILE "16 - Givin' Me the Blues.flac" WAVE
    INDEX 01 00:00:00
Лог проверки качества
[CUETools log; Date: 08.02.2019 23:48:56; Version: 2.1.6]
[CTDB TOCID: QtXA0_etySbBW0saCMRrawpufLQ-] found.
Track | CTDB Status
  1   | (1/1) Accurately ripped
  2   | (1/1) Accurately ripped
  3   | (1/1) Accurately ripped
  4   | (1/1) Accurately ripped
  5   | (1/1) Accurately ripped
  6   | (1/1) Accurately ripped
  7   | (1/1) Accurately ripped
  8   | (1/1) Accurately ripped
  9   | (1/1) Accurately ripped
 10   | (1/1) Accurately ripped
 11   | (1/1) Accurately ripped
 12   | (1/1) Accurately ripped
 13   | (1/1) Accurately ripped
 14   | (1/1) Accurately ripped
 15   | (1/1) Accurately ripped
 16   | (1/1) Accurately ripped
[AccurateRip ID: 002ec059-022fdcc1-eb11da10] found.
Track   [  CRC   |   V2   ] Status
 01     [0c7d4675|99e330db] (0+2/2) Accurately ripped
 02     [e5f54cc7|c852341d] (0+2/2) Accurately ripped
 03     [fd54eeae|fc9b3d33] (0+2/2) Accurately ripped
 04     [c191f22d|2d11feb6] (0+2/2) Accurately ripped
 05     [5a7bdf90|58e66f4a] (0+2/2) Accurately ripped
 06     [51aa3063|058c1582] (0+2/2) Accurately ripped
 07     [8b12f522|cfb5ae55] (0+2/2) Accurately ripped
 08     [b8e88903|3a74cba2] (0+2/2) Accurately ripped
 09     [c3d45ab1|ef2b1923] (0+2/2) Accurately ripped
 10     [7bf36dd3|890a6ec5] (0+2/2) Accurately ripped
 11     [b828acff|c28ce7cb] (0+2/2) Accurately ripped
 12     [b85896a1|2a285214] (0+2/2) Accurately ripped
 13     [a499b1ba|7ca37afa] (0+2/2) Accurately ripped
 14     [a6358071|f68b5df8] (0+2/2) Accurately ripped
 15     [0a4b1561|aa452757] (0+2/2) Accurately ripped
 16     [909079b8|64685d1b] (0+2/2) Accurately ripped

Track Peak [ CRC32  ] [W/O NULL]
 --   98,6 [2BB2C3F7] [84CF6627]
 01   98,5 [BF527062] [1411C9CD]
 02   98,5 [9B8659DD] [9EDDD9C6]
 03   98,6 [94ACE29D] [A474C2B6]
 04   98,5 [4B4875C9] [FC2AD7AB]
 05   98,5 [9F58ABFC] [40A9EF7E]
 06   98,6 [07212483] [C0BBFE00]
 07   98,6 [BD22A209] [7D12C3BA]
 08   98,5 [EC4BBF41] [C2CC7449]
 09   98,6 [14B030D9] [2639FFA0]
 10   98,6 [F2A79E24] [82A1F42B]
 11   98,6 [770C865A] [FC3210FC]
 12   98,5 [945C3124] [0EE63247]
 13   98,6 [4E5DA279] [8E269377]
 14   98,5 [6B326A23] [D618773F]
 15   98,6 [CF0E0C9C] [A1E93C9C]
 16   98,4 [24CBA812] [78EA9254]
Приватный:
Нет (DHT включён)
Размер:
519.01 Мб (544,225,278 байт) » файлов: 23
Участники:
0 раздают, 0 качают (0 участников всего)
Внешние участники:
5 раздают, 1 качают (6 участников всего) [ Обновить ]
No seeders - write a personal message to user M0p94ok. Нет сидеров - пишите личное сообщение пользователю M0p94ok.
07:51
166
Нет комментариев. Ваш будет первым!