Поиск

(Soul) [CD] The Delfonics - Didn't I Blow Your Mind - 2000, FLAC (tracks+.cue), lossless

Треклист:
The Delfonics / Didn't I Blow Your Mind
Жанр: Soul
Носитель: CD
Страна-производитель диска (релиза): USA
Год издания: 2000
Издатель (лейбл): BMG Special Products
Номер по каталогу: 75517456502
Страна исполнителя (группы): USA
Аудиокодек: FLAC (*.flac)
Тип рипа: tracks+.cue
Битрейт аудио: lossless
Продолжительность: 0:34:32.
Источник (релизер): clustert
Наличие сканов в содержимом раздачи: да
Треклист:
01. Didn't I (Blow Your Mind This Time) [0:03:23.00]
02. I Don't Want To Make You Wait [0:03:15.50]
03. Start All Over Again [0:04:22.25]
04. Don't Leave Me [0:02:52.12]
05. I Told You So [0:03:13.10]
06. Think It Over [0:04:40.28]
07. Can't Go On Living [0:03:13.00]
08. You'll Get Enough [0:02:24.00]
09. Lying To Myself [0:04:02.25]
10. The Phoney [0:03:06.12]
 
Лог создания рипа
Exact Audio Copy V1.0 beta 3 from 29. August 2011
Отчёт EAC об извлечении, выполненном 25. августа 2015, 20:14
The Delfonics / Didn't I Blow Your Mind
Дисковод: ASUS DRW-1814BLT Adapter: 4 ID: 0
Режим чтения : Достоверность
Использование точного потока : Да
Отключение кэша аудио : Да
Использование указателей C2 : Нет
Коррекция смещения при чтении : 6
Способность читать области Lead-in и Lead-out : Нет
Заполнение пропущенных сэмплов тишиной : Да
Удаление блоков с тишиной в начале и конце : Нет
При вычислениях CRC использовались нулевые сэмплы : Да
Интерфейс : Встроенный Win32-интерфейс для Win NT/2000
Обработка зазоров : Добавлено к предыдущему треку
Выходной формат : Пользовательский кодировщик
Выбранный битрейт : 128 kBit/s
Качество : Высокий
Добавление ID3-тега : Нет
Утилита сжатия : C:\Program Files\Exact Audio Copy\Flac\flac.exe
Дополнительные параметры : -V -8 -T "Genre=%genre%" -T "Artist=%artist%" -T "Title=%title%" -T "Album=%albumtitle%" -T "Date=%year%" -T "Tracknumber=%tracknr%" -T "Comment=EAC1.0b2 FLAC -8" %source%
TOC извлечённого CD
Трек | Старт | Длительность | Начальный сектор | Конечный сектор
---------------------------------------------------------------------
1 | 0:00.00 | 3:23.00 | 0 | 15224
2 | 3:23.00 | 3:15.50 | 15225 | 29899
3 | 6:38.50 | 4:22.25 | 29900 | 49574
4 | 11:01.00 | 2:52.12 | 49575 | 62486
5 | 13:53.12 | 3:13.10 | 62487 | 76971
6 | 17:06.22 | 4:40.28 | 76972 | 97999
7 | 21:46.50 | 3:13.00 | 98000 | 112474
8 | 24:59.50 | 2:24.00 | 112475 | 123274
9 | 27:23.50 | 4:02.25 | 123275 | 141449
10 | 31:26.00 | 3:06.12 | 141450 | 155411
Трек 1
Имя файла R:\Раздача 52\The Delfonics - 2000 - Didn't I Blow Your Mind\01 Didn't I (Blow Your Mind This Time).wav
Длина предзазора 0:00:02.00
Пиковый уровень 86.9 %
Скорость извлечения 2.5 X
Качество трека 100.0 %
CRC теста 23CCF993
CRC копии 23CCF993
Точное извлечение (достоверность 1) [B8892D20] (AR v2)
Копирование... OK
Трек 2
Имя файла R:\Раздача 52\The Delfonics - 2000 - Didn't I Blow Your Mind\02 I Don't Want To Make You Wait.wav
Длина предзазора 0:00:02.00
Пиковый уровень 100.0 %
Скорость извлечения 2.7 X
Качество трека 100.0 %
CRC теста 6ED7A5D6
CRC копии 6ED7A5D6
Точное извлечение (достоверность 1) [BA395490] (AR v2)
Копирование... OK
Трек 3
Имя файла R:\Раздача 52\The Delfonics - 2000 - Didn't I Blow Your Mind\03 Start All Over Again.wav
Длина предзазора 0:00:02.53
Пиковый уровень 82.9 %
Скорость извлечения 3.1 X
Качество трека 100.0 %
CRC теста 31CE8458
CRC копии 31CE8458
Точное извлечение (достоверность 1) [206CC003] (AR v2)
Копирование... OK
Трек 4
Имя файла R:\Раздача 52\The Delfonics - 2000 - Didn't I Blow Your Mind\04 Don't Leave Me.wav
Длина предзазора 0:00:02.25
Пиковый уровень 88.8 %
Скорость извлечения 3.1 X
Качество трека 100.0 %
CRC теста A3D6890E
CRC копии A3D6890E
Точное извлечение (достоверность 1) [81E96BC9] (AR v2)
Копирование... OK
Трек 5
Имя файла R:\Раздача 52\The Delfonics - 2000 - Didn't I Blow Your Mind\05 I Told You So.wav
Длина предзазора 0:00:01.17
Пиковый уровень 94.3 %
Скорость извлечения 3.3 X
Качество трека 100.0 %
CRC теста FE19707D
CRC копии FE19707D
Точное извлечение (достоверность 1) [21D4A368] (AR v2)
Копирование... OK
Трек 6
Имя файла R:\Раздача 52\The Delfonics - 2000 - Didn't I Blow Your Mind\06 Think It Over.wav
Длина предзазора 0:00:02.30
Пиковый уровень 98.6 %
Скорость извлечения 3.7 X
Качество трека 100.0 %
CRC теста 20531137
CRC копии 20531137
Точное извлечение (достоверность 1) [5985B474] (AR v2)
Копирование... OK
Трек 7
Имя файла R:\Раздача 52\The Delfonics - 2000 - Didn't I Blow Your Mind\07 Can't Go On Living.wav
Длина предзазора 0:00:02.15
Пиковый уровень 92.4 %
Скорость извлечения 3.7 X
Качество трека 100.0 %
CRC теста 5E50AD79
CRC копии 5E50AD79
Точное извлечение (достоверность 1) [2EAFF2AD] (AR v2)
Копирование... OK
Трек 8
Имя файла R:\Раздача 52\The Delfonics - 2000 - Didn't I Blow Your Mind\08 You'll Get Enough.wav
Длина предзазора 0:00:01.65
Пиковый уровень 94.2 %
Скорость извлечения 3.6 X
Качество трека 100.0 %
CRC теста 620B2378
CRC копии 620B2378
Точное извлечение (достоверность 1) [C85FF245] (AR v2)
Копирование... OK
Трек 9
Имя файла R:\Раздача 52\The Delfonics - 2000 - Didn't I Blow Your Mind\09 Lying To Myself.wav
Длина предзазора 0:00:01.50
Пиковый уровень 93.7 %
Скорость извлечения 2.4 X
Качество трека 99.9 %
CRC теста D4461817
CRC копии D4461817
Точное извлечение (достоверность 1) [5769E187] (AR v2)
Копирование... OK
Трек 10
Имя файла R:\Раздача 52\The Delfonics - 2000 - Didn't I Blow Your Mind\10 The Phoney.wav
Длина предзазора 0:00:01.50
Пиковый уровень 84.9 %
Скорость извлечения 2.8 X
Качество трека 100.0 %
CRC теста 0D17467E
CRC копии 0D17467E
Точное извлечение (достоверность 1) [AEA13DE8] (AR v2)
Копирование... OK
Все треки извлечены точно
Ошибок не произошло
Конец отчёта
==== Контрольная сумма отчёта 7BC800CB79DBDDCE3406BB352807FC47C84327E1316D0D10C12285AC3B826148 ====
 
Содержание индексной карты (.CUE)
REM GENRE Soul
REM DATE 2000
REM DISCID 7308180A
REM COMMENT "ExactAudioCopy v1.0b3"
PERFORMER "The Delfonics"
TITLE "Didn't I Blow Your Mind"
FILE "01 Didn't I (Blow Your Mind This Time).wav" WAVE
TRACK 01 AUDIO
TITLE "Didn't I (Blow Your Mind This Time)"
PERFORMER "The Delfonics"
INDEX 01 00:00:00
TRACK 02 AUDIO
TITLE "I Don't Want To Make You Wait"
PERFORMER "The Delfonics"
INDEX 00 03:21:00
FILE "02 I Don't Want To Make You Wait.wav" WAVE
INDEX 01 00:00:00
TRACK 03 AUDIO
TITLE "Start All Over Again"
PERFORMER "The Delfonics"
INDEX 00 03:12:72
FILE "03 Start All Over Again.wav" WAVE
INDEX 01 00:00:00
TRACK 04 AUDIO
TITLE "Don't Leave Me"
PERFORMER "The Delfonics"
INDEX 00 04:20:00
FILE "04 Don't Leave Me.wav" WAVE
INDEX 01 00:00:00
TRACK 05 AUDIO
TITLE "I Told You So"
PERFORMER "The Delfonics"
INDEX 00 02:50:70
FILE "05 I Told You So.wav" WAVE
INDEX 01 00:00:00
TRACK 06 AUDIO
TITLE "Think It Over"
PERFORMER "The Delfonics"
INDEX 00 03:10:55
FILE "06 Think It Over.wav" WAVE
INDEX 01 00:00:00
TRACK 07 AUDIO
TITLE "Can't Go On Living"
PERFORMER "The Delfonics"
INDEX 00 04:38:13
FILE "07 Can't Go On Living.wav" WAVE
INDEX 01 00:00:00
TRACK 08 AUDIO
TITLE "You'll Get Enough"
PERFORMER "The Delfonics"
INDEX 00 03:11:10
FILE "08 You'll Get Enough.wav" WAVE
INDEX 01 00:00:00
TRACK 09 AUDIO
TITLE "Lying To Myself"
PERFORMER "The Delfonics"
INDEX 00 02:22:25
FILE "09 Lying To Myself.wav" WAVE
INDEX 01 00:00:00
TRACK 10 AUDIO
TITLE "The Phoney"
PERFORMER "The Delfonics"
INDEX 00 04:00:50
FILE "10 The Phoney.wav" WAVE
INDEX 01 00:00:00
Приватный:
Нет (DHT включён)
Размер:
223.26 Мб (234,107,031 байт) » файлов: 19
Участники:
0 раздают, 0 качают (0 участников всего)
Внешние участники:
2 раздают, 1 качают (3 участников всего) [ Обновить ]
Есть вопросы - пишите личное сообщение пользователю M0p94ok.
07:52
77
Нет комментариев. Ваш будет первым!