Поиск

(Jazz-Funk) [CD] Ronnie Foster - Sweet Revival - 1972 (2013 Japan Edition), FLAC (image+.cue), lossless

(Jazz-Funk) [CD] Ronnie Foster - Sweet Revival - 1972 (2013 Japan Edition), FLAC (image+.cue), lossless
Треклист:
Ronnie Foster - Sweet Revival
Жанр: Jazz-Funk
Носитель: CD
Страна-производитель диска (релиза): Япония
Год издания: 2013
Издатель (лейбл): Blue Note/EMI Music Japan
Номер по каталогу: TOCJ-50567
Страна исполнителя (группы): США
Аудиокодек: FLAC (*.flac)
Тип рипа: image+.cue
Битрейт аудио: lossless
Продолжительность: 45:24
Источник (релизер): диск из моей коллекции
Наличие сканов в содержимом раздачи: да
Треклист:
01. Sweet Revival (Sample) - 3:55
02. Lisa's Love (Foster) - 5:28
03. Back Stabbers (Huff-Whitehead-McFadden) - 3:22
04. Me and Mrs. Jones (Gamble-Huff-Gilbert) - 4:24
05. Alone Again (Naturally) (O'Sullivan) - 4:08
06. Where Is the Love? (MacDonald-Salter) - 5:27
07. Some Neck (Foster) - 4:44
08. It's Just Gotta Be That Way (Henderson) - 3:51
09. Superwoman (Wonder) - 5:02
10. Inot (Foster) - 5:04
Состав:
Ronnie Foster - organ
Garnett Brown - trombone
Seldon Powell - tenor saxophone
Ernest Hayes - electric piano
David Spinozza, John Tropea - electric guitar
Wilbur Bascomb - electric bass
Bertrand Purdie - drums
Recorded at Generation Sound Studio, New York on December 14-15, 1972.
 
Лог создания рипа
Exact Audio Copy V1.0 beta 4 from 7. December 2014
EAC extraction logfile from 9. February 2015, 18:56
Ronnie Foster / Sweet Revival
Used drive : ASUS DRW-24B1LT Adapter: 1 ID: 1
Read mode : Secure
Utilize accurate stream : Yes
Defeat audio cache : Yes
Make use of C2 pointers : No
Read offset correction : 6
Overread into Lead-In and Lead-Out : No
Fill up missing offset samples with silence : Yes
Delete leading and trailing silent blocks : No
Null samples used in CRC calculations : Yes
Used interface : Native Win32 interface for Win NT & 2000
Used output format : User Defined Encoder
Selected bitrate : 768 kBit/s
Quality : High
Add ID3 tag : No
Command line compressor : C:\Program Files\Exact Audio Copy\Flac\flac.exe
Additional command line options : -8 -V -T "ARTIST=%artist%" -T "TITLE=%title%" -T "ALBUM=%albumtitle%" -T "DATE=%year%" -T "TRACKNUMBER=%tracknr%" -T "TOTALTRACKS=%numtracks%" -T "GENRE=%genre%" -T "ALBUMARTIST=%albumartist%" -T "ALBUM ARTIST=%albumartist%" -T "COMMENT=EAC Secure Mode, Test & Copy, AccurateRip, FLAC -8" %source%
TOC of the extracted CD
Track | Start | Length | Start sector | End sector
---------------------------------------------------------
1 | 0:00.00 | 3:54.61 | 0 | 17610
2 | 3:54.61 | 5:28.17 | 17611 | 42227
3 | 9:23.03 | 3:22.37 | 42228 | 57414
4 | 12:45.40 | 4:24.21 | 57415 | 77235
5 | 17:09.61 | 4:07.49 | 77236 | 95809
6 | 21:17.35 | 5:26.63 | 95810 | 120322
7 | 26:44.23 | 4:44.11 | 120323 | 141633
8 | 31:28.34 | 3:50.46 | 141634 | 158929
9 | 35:19.05 | 5:01.38 | 158930 | 181542
10 | 40:20.43 | 5:03.53 | 181543 | 204320
Range status and errors
Selected range
Filename F:\audio\Ronnie Foster - Sweet Revival.wav
Peak level 100.0 %
Extraction speed 5.4 X
Range quality 100.0 %
Test CRC D0A5B70F
Copy CRC D0A5B70F
Copy OK
No errors occurred
AccurateRip summary
Track 1 not present in database
Track 2 not present in database
Track 3 not present in database
Track 4 not present in database
Track 5 not present in database
Track 6 not present in database
Track 7 not present in database
Track 8 not present in database
Track 9 not present in database
Track 10 not present in database
None of the tracks are present in the AccurateRip database
End of status report
---- CUETools DB Plugin V2.1.4
[CTDB TOCID: 7xP.WrHSipSBr5f6A3nZ8VDYOpk-] disk not present in database
Submit result: 7xP.WrHSipSBr5f6A3nZ8VDYOpk- has been uploaded
==== Log checksum D611FF621BE850068573927F1F1FDD324FB42C092CD978A5EF9E43813F789C79 ====
 
Содержание индексной карты (.CUE)
REM GENRE Jazz
REM DATE 1972
REM DISCID 780AA40A
REM COMMENT "ExactAudioCopy v1.0b4"
PERFORMER "Ronnie Foster"
TITLE "Sweet Revival"
FILE "Ronnie Foster - Sweet Revival.wav" WAVE
TRACK 01 AUDIO
TITLE "Sweet Revival"
PERFORMER "Ronnie Foster"
INDEX 01 00:00:00
TRACK 02 AUDIO
TITLE "Lisa's Love"
PERFORMER "Ronnie Foster"
INDEX 00 03:53:68
INDEX 01 03:54:61
TRACK 03 AUDIO
TITLE "Back Stabbers"
PERFORMER "Ronnie Foster"
INDEX 00 09:22:15
INDEX 01 09:23:03
TRACK 04 AUDIO
TITLE "Me and Mrs. Jones"
PERFORMER "Ronnie Foster"
INDEX 00 12:44:16
INDEX 01 12:45:40
TRACK 05 AUDIO
TITLE "Alone Again (Naturally)"
PERFORMER "Ronnie Foster"
INDEX 00 17:08:73
INDEX 01 17:09:61
TRACK 06 AUDIO
TITLE "Where Is the Love?"
PERFORMER "Ronnie Foster"
INDEX 00 21:15:67
INDEX 01 21:17:35
TRACK 07 AUDIO
TITLE "Some Neck"
PERFORMER "Ronnie Foster"
INDEX 00 26:42:55
INDEX 01 26:44:23
TRACK 08 AUDIO
TITLE "It's Just Gotta Be That Way"
PERFORMER "Ronnie Foster"
INDEX 00 31:26:66
INDEX 01 31:28:34
TRACK 09 AUDIO
TITLE "Superwoman"
PERFORMER "Ronnie Foster"
INDEX 00 35:18:04
INDEX 01 35:19:05
TRACK 10 AUDIO
TITLE "Inot"
PERFORMER "Ronnie Foster"
INDEX 00 40:19:00
INDEX 01 40:20:43
 
Отчет CUETools
[CUETools log; Date: 09.02.2015 19:46:17; Version: 2.1.5]
[CTDB TOCID: 7xP.WrHSipSBr5f6A3nZ8VDYOpk-] found.
Track | CTDB Status
1 | (1/1) Accurately ripped
2 | (1/1) Accurately ripped
3 | (1/1) Accurately ripped
4 | (1/1) Accurately ripped
5 | (1/1) Accurately ripped
6 | (1/1) Accurately ripped
7 | (1/1) Accurately ripped
8 | (1/1) Accurately ripped
9 | (1/1) Accurately ripped
10 | (1/1) Accurately ripped
[AccurateRip ID: 0010bd5b-00869a17-780aa40a] disk not present in database.
Track Peak [ CRC32 ] [W/O NULL] [ LOG ]
-- 100,0 [D0A5B70F] [3FB9BE82] CRC32
01 98,1 [F2E7918A] [D02DAE0E]
02 97,0 [47F2348B] [4C9003AB]
03 96,8 [F17D408C] [242B7B78]
04 96,6 [AD55789F] [560BC05C]
05 96,8 [3958B007] [6CED3979]
06 100,0 [CF4425F8] [5665636F]
07 97,0 [C0BA37DF] [E7CFAB3D]
08 92,6 [A90EAFCC] [8D2AD714]
09 97,0 [8CE7C04E] [AE76219A]
10 98,2 [5EBB8DE8] [6A47E6A3]
 
Review by Stephen Thomas Erlewine
"Let me begin by saying that this is not the greatest jazz album you've ever heard." So states critic/DJ Harry Abraham in the liner notes on the back of Sweet Revival, Ronnie Foster's second album as a leader. Abraham was obviously trying to deflect criticism that this record is, in his words, "a commercial album that could have just as easily been titled 'Ronnie Foster Plays the Top 40 hits of the Seventies With Horns, Strings and Voices,'" but nothing he could write would make this album acceptable to jazz purists. Foster's fondness for funky soul-jazz would be enough to earn the disdain of some critics, but he compounds his problems by piling on contemporary funk, soul, and pop influences. Sweet, sweeping strings straight out of Philadelphia are all over Sweet Revival, as are wah-wah and fuzz guitars, slap bass, electric pianos, vocal choruses, and electric sitars. Half of the album is devoted to pop covers ("Back Stabbers," "Me and Mrs. Jones," "Alone Again (Naturally)"), with a couple of fusion numbers and originals thrown in for good measure. Certainly, this is the stuff that enrages jazzbos, and the album does sound like the soundtrack for a cut-rate blaxploitation flick, but that's part of its appeal. Fans of that sound will find much of the album appealing, even if the vocals can sound eerie (check out the heavily echoed intro to "Where Is the Love?") and the sitars sound silly. Although the album sounds dated, the grooves are funky, and Sweet Revival remains one of the most engaging records of groovy, jazzy funk-soul of its era.
Приватный:
Нет (DHT включён)
Размер:
315.71 Мб (331,043,729 байт) » файлов: 13
Участники:
0 раздают, 0 качают (0 участников всего)
Внешние участники:
5 раздают, 2 качают (7 участников всего) [ Обновить ]
Есть вопросы - пишите личное сообщение пользователю M0p94ok.
04:14
76
Нет комментариев. Ваш будет первым!