Поиск

(Funk, Soul, Disco) [CD] Willie Hutch - Midnight Dancer (1979) - 2014, FLAC (tracks+.cue), lossless

(Funk, Soul, Disco) [CD] Willie Hutch - Midnight Dancer (1979) - 2014, FLAC (tracks+.cue), lossless
Треклист:
Willie Hutch - Midnight Dancer (1979)
Жанр: Funk, Soul, Disco
Носитель: CD
Год издания: 2014
Издатель (лейбл): Real Gone Music
Номер по каталогу: RGM-0290
Аудиокодек: FLAC (*.flac)
Тип рипа: tracks+.cue
Битрейт аудио: lossless
Продолжительность: 46:17
Rip by JET 1
Наличие сканов в содержимом раздачи: да
Треклист:
01. Disco Thang (6:23)
02. Midnight Dancer (8:11)
03. Kelly Green (4:29)
04. Never Let You Be Without Love (4:31)
05. Everyday Love (5:46)
06. Deep In Your Love (5:49)
07. Everybody Needs Money (5:35)
08. Down Here On Disco Street (5:34)
 
 
Лог создания рипа
Exact Audio Copy V1.0 beta 3 from 29. August 2011
EAC extraction logfile from 29. January 2015, 8:41
Willie Hutch / Midnight Dancer
Used drive : ATAPI DVD A DH16A6L-C Adapter: 2 ID: 0
Read mode : Secure
Utilize accurate stream : Yes
Defeat audio cache : Yes
Make use of C2 pointers : No
Read offset correction : 6
Overread into Lead-In and Lead-Out : No
Fill up missing offset samples with silence : Yes
Delete leading and trailing silent blocks : No
Null samples used in CRC calculations : Yes
Used interface : Native Win32 interface for Win NT & 2000
Gap handling : Appended to previous track
Used output format : User Defined Encoder
Selected bitrate : 1024 kBit/s
Quality : High
Add ID3 tag : No
Command line compressor : C:\Program Files\FLAC\flac.exe
Additional command line options : -8 -V -T "ARTIST=%artist%" -T "TITLE=%title%" -T "ALBUM=%albumtitle%" -T "DATE=%year%" -T "TRACKNUMBER=%tracknr%" -T "GENRE=%genre%" -T "PERFORMER=%albuminterpret%" -T "COMPOSER=%composer%" %haslyrics%--tag-from-file=LYRICS="%lyricsfile%"%haslyrics% -T "ALBUMARTIST=%albumartist%" -T "DISCNUMBER=%cdnumber%" -T "TOTALDISCS=%totalcds%" -T "TOTALTRACKS=%numtracks%" -T "COMMENT=%comment%" %source% -o %dest%
TOC of the extracted CD
Track | Start | Length | Start sector | End sector
---------------------------------------------------------
1 | 0:00.00 | 6:22.42 | 0 | 28691
2 | 6:22.42 | 8:10.55 | 28692 | 65496
3 | 14:33.22 | 4:29.11 | 65497 | 85682
4 | 19:02.33 | 4:30.49 | 85683 | 105981
5 | 23:33.07 | 5:45.45 | 105982 | 131901
6 | 29:18.52 | 5:48.65 | 131902 | 158066
7 | 35:07.42 | 5:35.13 | 158067 | 183204
8 | 40:42.55 | 5:34.20 | 183205 | 208274
Track 1
Filename I:\0\Willie Hutch ‎- Midnight Dancer (1979) [2014 Remastered]\01 - Disco Thang.wav
Pre-gap length 0:00:02.00
Peak level 98.8 %
Extraction speed 3.9 X
Track quality 100.0 %
Test CRC 60E0C369
Copy CRC 60E0C369
Track not present in AccurateRip database
Copy OK
Track 2
Filename I:\0\Willie Hutch ‎- Midnight Dancer (1979) [2014 Remastered]\02 - Midnight Dancer.wav
Pre-gap length 0:00:02.00
Peak level 98.8 %
Extraction speed 4.6 X
Track quality 100.0 %
Test CRC AC59D4D4
Copy CRC AC59D4D4
Track not present in AccurateRip database
Copy OK
Track 3
Filename I:\0\Willie Hutch ‎- Midnight Dancer (1979) [2014 Remastered]\03 - Kelly Green.wav
Pre-gap length 0:00:02.00
Peak level 92.9 %
Extraction speed 4.9 X
Track quality 100.0 %
Test CRC E75F5061
Copy CRC E75F5061
Track not present in AccurateRip database
Copy OK
Track 4
Filename I:\0\Willie Hutch ‎- Midnight Dancer (1979) [2014 Remastered]\04 - Never Let You Be Without Love.wav
Pre-gap length 0:00:02.00
Peak level 98.8 %
Extraction speed 5.2 X
Track quality 100.0 %
Test CRC EBAED38A
Copy CRC EBAED38A
Track not present in AccurateRip database
Copy OK
Track 5
Filename I:\0\Willie Hutch ‎- Midnight Dancer (1979) [2014 Remastered]\05 - Everyday Love.wav
Pre-gap length 0:00:02.00
Peak level 98.8 %
Extraction speed 4.8 X
Track quality 99.9 %
Test CRC 62A90B88
Copy CRC 62A90B88
Track not present in AccurateRip database
Copy OK
Track 6
Filename I:\0\Willie Hutch ‎- Midnight Dancer (1979) [2014 Remastered]\06 - Deep In Your Love.wav
Pre-gap length 0:00:02.00
Peak level 98.8 %
Extraction speed 6.1 X
Track quality 100.0 %
Test CRC 90800118
Copy CRC 90800118
Track not present in AccurateRip database
Copy OK
Track 7
Filename I:\0\Willie Hutch ‎- Midnight Dancer (1979) [2014 Remastered]\07 - Everybody Needs Money.wav
Pre-gap length 0:00:02.00
Peak level 98.8 %
Extraction speed 6.5 X
Track quality 100.0 %
Test CRC B3148853
Copy CRC B3148853
Track not present in AccurateRip database
Copy OK
Track 8
Filename I:\0\Willie Hutch ‎- Midnight Dancer (1979) [2014 Remastered]\08 - Down Here On Disco Street.wav
Pre-gap length 0:00:02.00
Peak level 98.8 %
Extraction speed 6.7 X
Track quality 100.0 %
Test CRC 23AEC1C0
Copy CRC 23AEC1C0
Track not present in AccurateRip database
Copy OK
None of the tracks are present in the AccurateRip database
No errors occurred
End of status report
==== Log checksum EF46774E363810904A38C1C2A4D4FD9287A3AB3B931E5668FBEB4F8680A639DE ====
 
Содержание индексной карты (.CUE)
REM GENRE Soul
REM DATE 1979
REM DISCID 620AD908
REM COMMENT "ExactAudioCopy v1.0b3"
PERFORMER "Willie Hutch"
TITLE "Midnight Dancer"
FILE "01 - Disco Thang.wav" WAVE
TRACK 01 AUDIO
TITLE "Disco Thang"
PERFORMER "Willie Hutch"
FLAGS DCP
INDEX 01 00:00:00
TRACK 02 AUDIO
TITLE "Midnight Dancer"
PERFORMER "Willie Hutch"
FLAGS DCP
INDEX 00 06:20:42
FILE "02 - Midnight Dancer.wav" WAVE
INDEX 01 00:00:00
TRACK 03 AUDIO
TITLE "Kelly Green"
PERFORMER "Willie Hutch"
FLAGS DCP
INDEX 00 08:08:55
FILE "03 - Kelly Green.wav" WAVE
INDEX 01 00:00:00
TRACK 04 AUDIO
TITLE "Never Let You Be Without Love"
PERFORMER "Willie Hutch"
FLAGS DCP
INDEX 00 04:27:11
FILE "04 - Never Let You Be Without Love.wav" WAVE
INDEX 01 00:00:00
TRACK 05 AUDIO
TITLE "Everyday Love"
PERFORMER "Willie Hutch"
FLAGS DCP
INDEX 00 04:28:49
FILE "05 - Everyday Love.wav" WAVE
INDEX 01 00:00:00
TRACK 06 AUDIO
TITLE "Deep In Your Love"
PERFORMER "Willie Hutch"
FLAGS DCP
INDEX 00 05:43:45
FILE "06 - Deep In Your Love.wav" WAVE
INDEX 01 00:00:00
TRACK 07 AUDIO
TITLE "Everybody Needs Money"
PERFORMER "Willie Hutch"
FLAGS DCP
INDEX 00 05:46:65
FILE "07 - Everybody Needs Money.wav" WAVE
INDEX 01 00:00:00
TRACK 08 AUDIO
TITLE "Down Here On Disco Street"
PERFORMER "Willie Hutch"
FLAGS DCP
INDEX 00 05:33:13
FILE "08 - Down Here On Disco Street.wav" WAVE
INDEX 01 00:00:00
Приватный:
Нет (DHT включён)
Размер:
391.41 Мб (410,425,870 байт) » файлов: 21
Участники:
0 раздают, 0 качают (0 участников всего)
Внешние участники:
3 раздают, 1 качают (4 участников всего) [ Обновить ]
Есть вопросы - пишите личное сообщение пользователю M0p94ok.
04:13
49
Нет комментариев. Ваш будет первым!