Поиск

(Funk, Soul) Commodores - Compact Command Performances (14 Greatest Hits) - 1983, FLAC (tracks+.cue), lossless

(Funk, Soul) Commodores - Compact Command Performances (14 Greatest Hits) - 1983, FLAC (tracks+.cue), lossless
Треклист:
Commodores / Compact Command Performances (14 Greatest Hits)
Жанр: Funk, Soul
Страна-производитель диска (релиза): USA
Год издания: 1983
Издатель (лейбл): Motown
Номер по каталогу: 530096-2
Страна исполнителя (группы): USA
Аудиокодек: FLAC (*.flac)
Тип рипа: tracks+.cue
Битрейт аудио: lossless
Продолжительность: 0:59:33.
Источник (релизер): clustert
Наличие сканов в содержимом раздачи: да
Треклист:
01. Machine Gun [0:02:41.25]
M. Williams
02. Slippery When Wet [0:03:19.72]
T. McClary
03. Sweet Love [0:03:27.70]
L. Richie, Jr.
04. Fancy Dancer [0:04:26.18]
L. Richie, Jr., R. LaPread
05. Easy [0:04:50.65]
L. Richie, Jr.
06. Brick House [0:03:44.25]
T. McClary, M. Williams, W. Orange, L. Richie, Jr., R. LaPread, W.
King
07. Too Hot Ta Trot [0:03:32.20]
T. McClary, M. Williams, W. Orange, L. Richie, Jr., R. LaPread, W.
King
08. Three Times A Lady [0:03:38.50]
L. Richie, Jr.
09. X-Rated Movie [0:04:46.30]
M. Williams
10. Sail On [0:05:35.05]
L. Richie, Jr.
11. Still [0:05:49.42]
L. Richie, Jr.
12. Wonderland [0:03:50.38]
M. Williams
13. Old-Fashion Love [0:04:58.52]
M. Williams
14. Lady (You Bring Me Up) [0:04:51.63]
W. King, H. Hudson, S. King
 
Лог создания рипа
Exact Audio Copy V1.0 beta 3 from 29. August 2011
Отчёт EAC об извлечении, выполненном 8. февраля 2015, 16:11
Commodores / Compact Command Performances 14 Greatest Hits
Дисковод: ASUS DVD-E616A3T Adapter: 5 ID: 0
Режим чтения : Достоверность
Использование точного потока : Да
Отключение кэша аудио : Да
Использование указателей C2 : Нет
Коррекция смещения при чтении : 6
Способность читать области Lead-in и Lead-out : Нет
Заполнение пропущенных сэмплов тишиной : Да
Удаление блоков с тишиной в начале и конце : Нет
При вычислениях CRC использовались нулевые сэмплы : Да
Интерфейс : Встроенный Win32-интерфейс для Win NT/2000
Обработка зазоров : Добавлено к предыдущему треку
Выходной формат : Пользовательский кодировщик
Выбранный битрейт : 128 kBit/s
Качество : Высокий
Добавление ID3-тега : Нет
Утилита сжатия : C:\Program Files\Exact Audio Copy\Flac\flac.exe
Дополнительные параметры : -V -8 -T "Genre=%genre%" -T "Artist=%artist%" -T "Title=%title%" -T "Album=%albumtitle%" -T "Date=%year%" -T "Tracknumber=%tracknr%" -T "Comment=EAC1.0b2 FLAC -8" %source%
TOC извлечённого CD
Трек | Старт | Длительность | Начальный сектор | Конечный сектор
---------------------------------------------------------------------
1 | 0:00.33 | 2:41.25 | 33 | 12132
2 | 2:41.58 | 3:19.72 | 12133 | 27129
3 | 6:01.55 | 3:27.70 | 27130 | 42724
4 | 9:29.50 | 4:26.18 | 42725 | 62692
5 | 13:55.68 | 4:50.65 | 62693 | 84507
6 | 18:46.58 | 3:44.25 | 84508 | 101332
7 | 22:31.08 | 3:32.20 | 101333 | 117252
8 | 26:03.28 | 3:38.50 | 117253 | 133652
9 | 29:42.03 | 4:46.30 | 133653 | 155132
10 | 34:28.33 | 5:35.05 | 155133 | 180262
11 | 40:03.38 | 5:49.42 | 180263 | 206479
12 | 45:53.05 | 3:50.38 | 206480 | 223767
13 | 49:43.43 | 4:58.52 | 223768 | 246169
14 | 54:42.20 | 4:51.63 | 246170 | 268057
Трек 1
Имя файла R:\Раздача 36\Commodores - 1983 - Compact Command Performances (14 Greatest Hits)\01 Machine Gun.wav
Длина предзазора 0:00:02.33
Пиковый уровень 53.4 %
Скорость извлечения 1.3 X
Качество трека 99.9 %
CRC теста 5EB037B4
CRC копии 5EB037B4
Точное извлечение (достоверность 2) [00323069] (AR v2)
Копирование... OK
Трек 2
Имя файла R:\Раздача 36\Commodores - 1983 - Compact Command Performances (14 Greatest Hits)\02 Slippery When Wet.wav
Длина предзазора 0:00:01.58
Пиковый уровень 55.7 %
Скорость извлечения 1.7 X
Качество трека 100.0 %
CRC теста 6F9BE17C
CRC копии 6F9BE17C
Точное извлечение (достоверность 2) [D060C78A] (AR v2)
Копирование... OK
Трек 3
Имя файла R:\Раздача 36\Commodores - 1983 - Compact Command Performances (14 Greatest Hits)\03 Sweet Love.wav
Длина предзазора 0:00:00.50
Пиковый уровень 44.3 %
Скорость извлечения 1.9 X
Качество трека 100.0 %
CRC теста 83572496
CRC копии 83572496
Точное извлечение (достоверность 2) [06F672AA] (AR v2)
Копирование... OK
Трек 4
Имя файла R:\Раздача 36\Commodores - 1983 - Compact Command Performances (14 Greatest Hits)\04 Fancy Dancer.wav
Длина предзазора 0:00:01.62
Пиковый уровень 54.0 %
Скорость извлечения 1.9 X
Качество трека 99.9 %
CRC теста 55CBABB7
CRC копии 55CBABB7
Точное извлечение (достоверность 2) [8BE3EFA4] (AR v2)
Копирование... OK
Трек 5
Имя файла R:\Раздача 36\Commodores - 1983 - Compact Command Performances (14 Greatest Hits)\05 Easy.wav
Длина предзазора 0:00:01.35
Пиковый уровень 48.0 %
Скорость извлечения 2.3 X
Качество трека 100.0 %
CRC теста 3D5CE142
CRC копии 3D5CE142
Точное извлечение (достоверность 2) [CAAAF090] (AR v2)
Копирование... OK
Трек 6
Имя файла R:\Раздача 36\Commodores - 1983 - Compact Command Performances (14 Greatest Hits)\06 Brick House.wav
Длина предзазора 0:00:00.35
Пиковый уровень 54.9 %
Скорость извлечения 2.4 X
Качество трека 100.0 %
CRC теста 8DB9B0B8
CRC копии 8DB9B0B8
Точное извлечение (достоверность 2) [51C141C7] (AR v2)
Копирование... OK
Трек 7
Имя файла R:\Раздача 36\Commodores - 1983 - Compact Command Performances (14 Greatest Hits)\07 Too Hot Ta Trot.wav
Пиковый уровень 47.1 %
Скорость извлечения 2.5 X
Качество трека 100.0 %
CRC теста 5DC882F9
CRC копии 5DC882F9
Точное извлечение (достоверность 2) [9CA3D789] (AR v2)
Копирование... OK
Трек 8
Имя файла R:\Раздача 36\Commodores - 1983 - Compact Command Performances (14 Greatest Hits)\08 Three Times A Lady.wav
Длина предзазора 0:00:00.46
Пиковый уровень 45.5 %
Скорость извлечения 2.6 X
Качество трека 100.0 %
CRC теста E0344C3E
CRC копии E0344C3E
Точное извлечение (достоверность 2) [61991C10] (AR v2)
Копирование... OK
Трек 9
Имя файла R:\Раздача 36\Commodores - 1983 - Compact Command Performances (14 Greatest Hits)\09 X-Rated Movie.wav
Длина предзазора 0:00:02.25
Пиковый уровень 64.6 %
Скорость извлечения 2.8 X
Качество трека 100.0 %
CRC теста 40A71CDF
CRC копии 40A71CDF
Точное извлечение (достоверность 2) [DF98C761] (AR v2)
Копирование... OK
Трек 10
Имя файла R:\Раздача 36\Commodores - 1983 - Compact Command Performances (14 Greatest Hits)\10 Sail On.wav
Длина предзазора 0:00:01.45
Пиковый уровень 39.2 %
Скорость извлечения 3.0 X
Качество трека 100.0 %
CRC теста 0BD7D8C5
CRC копии 0BD7D8C5
Точное извлечение (достоверность 2) [D9F278DF] (AR v2)
Копирование... OK
Трек 11
Имя файла R:\Раздача 36\Commodores - 1983 - Compact Command Performances (14 Greatest Hits)\11 Still.wav
Длина предзазора 0:00:01.20
Пиковый уровень 43.6 %
Скорость извлечения 2.4 X
Качество трека 99.9 %
CRC теста 92A9F752
CRC копии 92A9F752
Точное извлечение (достоверность 2) [2919C055] (AR v2)
Копирование... OK
Трек 12
Имя файла R:\Раздача 36\Commodores - 1983 - Compact Command Performances (14 Greatest Hits)\12 Wonderland.wav
Пиковый уровень 58.0 %
Скорость извлечения 3.1 X
Качество трека 100.0 %
CRC теста A09396D9
CRC копии A09396D9
Точное извлечение (достоверность 2) [93ED81AA] (AR v2)
Копирование... OK
Трек 13
Имя файла R:\Раздача 36\Commodores - 1983 - Compact Command Performances (14 Greatest Hits)\13 Old-Fashion Love.wav
Длина предзазора 0:00:02.00
Пиковый уровень 51.2 %
Скорость извлечения 3.3 X
Качество трека 100.0 %
CRC теста E500E990
CRC копии E500E990
Точное извлечение (достоверность 2) [C90DE5F8] (AR v2)
Копирование... OK
Трек 14
Имя файла R:\Раздача 36\Commodores - 1983 - Compact Command Performances (14 Greatest Hits)\14 Lady (You Bring Me Up).wav
Длина предзазора 0:00:00.57
Пиковый уровень 50.8 %
Скорость извлечения 2.8 X
Качество трека 99.9 %
CRC теста C6113EA4
CRC копии C6113EA4
Точное извлечение (достоверность 2) [2C79731A] (AR v2)
Копирование... OK
Все треки извлечены точно
Ошибок не произошло
Конец отчёта
==== Контрольная сумма отчёта 745304B8C6625C7E2F662B460542602BB897067ACD1F4A4938B9BB324A64B23D ====
 
Содержание индексной карты (.CUE)
REM GENRE Soul
REM DATE 1983
REM DISCID C40DF60E
REM COMMENT "ExactAudioCopy v1.0b3"
CATALOG 0731453009622
PERFORMER "Commodores"
TITLE "Compact Command Performances 14 Greatest Hits"
FILE "01 Machine Gun.wav" WAVE
TRACK 01 AUDIO
TITLE "Machine Gun"
PERFORMER "Commodores"
PREGAP 00:00:33
INDEX 01 00:00:00
TRACK 02 AUDIO
TITLE "Slippery When Wet"
PERFORMER "Commodores"
INDEX 00 02:39:42
FILE "02 Slippery When Wet.wav" WAVE
INDEX 01 00:00:00
TRACK 03 AUDIO
TITLE "Sweet Love"
PERFORMER "Commodores"
INDEX 00 03:19:22
FILE "03 Sweet Love.wav" WAVE
INDEX 01 00:00:00
TRACK 04 AUDIO
TITLE "Fancy Dancer"
PERFORMER "Commodores"
INDEX 00 03:26:08
FILE "04 Fancy Dancer.wav" WAVE
INDEX 01 00:00:00
TRACK 05 AUDIO
TITLE "Easy"
PERFORMER "Commodores"
INDEX 00 04:24:58
FILE "05 Easy.wav" WAVE
INDEX 01 00:00:00
TRACK 06 AUDIO
TITLE "Brick House"
PERFORMER "Commodores"
INDEX 00 04:50:30
FILE "06 Brick House.wav" WAVE
INDEX 01 00:00:00
FILE "07 Too Hot Ta Trot.wav" WAVE
TRACK 07 AUDIO
TITLE "Too Hot Ta Trot"
PERFORMER "Commodores"
INDEX 01 00:00:00
TRACK 08 AUDIO
TITLE "Three Times A Lady"
PERFORMER "Commodores"
INDEX 00 03:31:49
FILE "08 Three Times A Lady.wav" WAVE
INDEX 01 00:00:00
TRACK 09 AUDIO
TITLE "X-Rated Movie"
PERFORMER "Commodores"
INDEX 00 03:36:25
FILE "09 X-Rated Movie.wav" WAVE
INDEX 01 00:00:00
TRACK 10 AUDIO
TITLE "Sail On"
PERFORMER "Commodores"
INDEX 00 04:44:60
FILE "10 Sail On.wav" WAVE
INDEX 01 00:00:00
TRACK 11 AUDIO
TITLE "Still"
PERFORMER "Commodores"
INDEX 00 05:33:60
FILE "11 Still.wav" WAVE
INDEX 01 00:00:00
FILE "12 Wonderland.wav" WAVE
TRACK 12 AUDIO
TITLE "Wonderland"
PERFORMER "Commodores"
INDEX 01 00:00:00
TRACK 13 AUDIO
TITLE "Old-Fashion Love"
PERFORMER "Commodores"
INDEX 00 03:48:38
FILE "13 Old-Fashion Love.wav" WAVE
INDEX 01 00:00:00
TRACK 14 AUDIO
TITLE "Lady (You Bring Me Up)"
PERFORMER "Commodores"
INDEX 00 04:57:70
FILE "14 Lady (You Bring Me Up).wav" WAVE
INDEX 01 00:00:00
Приватный:
Нет (DHT включён)
Размер:
303.63 Мб (318,376,405 байт) » файлов: 23
Участники:
0 раздают, 0 качают (0 участников всего)
Внешние участники:
2 раздают, 1 качают (3 участников всего) [ Обновить ]
No seeders - write a personal message to user M0p94ok. Нет сидеров - пишите личное сообщение пользователю M0p94ok.
04:13
86
Нет комментариев. Ваш будет первым!