Поиск

(Funk) Average White Band - Soul Tattoo - 1996, FLAC (tracks+.cue), lossless

(Funk) Average White Band - Soul Tattoo - 1996, FLAC (tracks+.cue), lossless
Треклист:
Average White Band / Soul Tattoo
Жанр: Funk
Страна-производитель диска (релиза): Germany
Год издания: 1996
Издатель (лейбл): Average Enterprises/SPV Recordings
Номер по каталогу: SPV085-33752
Страна исполнителя (группы): USA
Аудиокодек: FLAC (*.flac)
Тип рипа: tracks+.cue
Битрейт аудио: lossless
Продолжительность: 0:52:24.
Источник (релизер): clustert
Наличие сканов в содержимом раздачи: да
Треклист:
01. Soul Mine [0:04:26.00]
02. Back To Basics [0:03:59.22]
03. Livin' On Borrowed Time [0:04:13.28]
04. Every Beat Of My Heart [0:05:07.37]
05. When We Get Down On It [0:04:03.63]
06. Oh Maceo [0:03:39.22]
07. Do Ya Really [0:04:26.15]
08. I Wanna Be Loved [0:04:33.50]
09. No Easy Way To Say Goodbye [0:04:28.28]
10. Love Is The Bottom Line [0:04:04.30]
11. Welcome To The Real World [0:04:16.67]
12. Window To Your Soul [0:05:05.33]
 
Лог создания рипа
Exact Audio Copy V1.0 beta 3 from 29. August 2011
Отчёт EAC об извлечении, выполненном 7. февраля 2015, 21:02
Average White Band / Soul Tattoo
Дисковод: ASUS DRW-1814BLT Adapter: 4 ID: 0
Режим чтения : Достоверность
Использование точного потока : Да
Отключение кэша аудио : Да
Использование указателей C2 : Нет
Коррекция смещения при чтении : 6
Способность читать области Lead-in и Lead-out : Нет
Заполнение пропущенных сэмплов тишиной : Да
Удаление блоков с тишиной в начале и конце : Нет
При вычислениях CRC использовались нулевые сэмплы : Да
Интерфейс : Встроенный Win32-интерфейс для Win NT/2000
Обработка зазоров : Добавлено к предыдущему треку
Выходной формат : Пользовательский кодировщик
Выбранный битрейт : 128 kBit/s
Качество : Высокий
Добавление ID3-тега : Нет
Утилита сжатия : C:\Program Files\Exact Audio Copy\Flac\flac.exe
Дополнительные параметры : -V -8 -T "Genre=%genre%" -T "Artist=%artist%" -T "Title=%title%" -T "Album=%albumtitle%" -T "Date=%year%" -T "Tracknumber=%tracknr%" -T "Comment=EAC1.0b2 FLAC -8" %source%
TOC извлечённого CD
Трек | Старт | Длительность | Начальный сектор | Конечный сектор
---------------------------------------------------------------------
1 | 0:00.00 | 4:26.00 | 0 | 19949
2 | 4:26.00 | 3:59.22 | 19950 | 37896
3 | 8:25.22 | 4:13.28 | 37897 | 56899
4 | 12:38.50 | 5:07.37 | 56900 | 79961
5 | 17:46.12 | 4:03.63 | 79962 | 98249
6 | 21:50.00 | 3:39.22 | 98250 | 114696
7 | 25:29.22 | 4:26.15 | 114697 | 134661
8 | 29:55.37 | 4:33.50 | 134662 | 155186
9 | 34:29.12 | 4:28.28 | 155187 | 175314
10 | 38:57.40 | 4:04.30 | 175315 | 193644
11 | 43:01.70 | 4:16.67 | 193645 | 212911
12 | 47:18.62 | 5:05.33 | 212912 | 235819
Трек 1
Имя файла R:\Раздача 36\Average White Band - 1996 - Soul Tattoo\01 Soul Mine.wav
Длина предзазора 0:00:02.00
Пиковый уровень 100.0 %
Скорость извлечения 5.2 X
Качество трека 100.0 %
CRC теста B515FE5D
CRC копии B515FE5D
Точное извлечение (достоверность 4) [AAD2A5DB] (AR v2)
Копирование... OK
Трек 2
Имя файла R:\Раздача 36\Average White Band - 1996 - Soul Tattoo\02 Back To Basics.wav
Пиковый уровень 100.0 %
Скорость извлечения 5.8 X
Качество трека 100.0 %
CRC теста 2DB018B1
CRC копии 2DB018B1
Точное извлечение (достоверность 4) [40951497] (AR v2)
Копирование... OK
Трек 3
Имя файла R:\Раздача 36\Average White Band - 1996 - Soul Tattoo\03 Livin' On Borrowed Time.wav
Пиковый уровень 100.0 %
Скорость извлечения 6.3 X
Качество трека 100.0 %
CRC теста BA9C9480
CRC копии BA9C9480
Точное извлечение (достоверность 4) [4F538DB2] (AR v2)
Копирование... OK
Трек 4
Имя файла R:\Раздача 36\Average White Band - 1996 - Soul Tattoo\04 Every Beat Of My Heart.wav
Пиковый уровень 96.8 %
Скорость извлечения 7.0 X
Качество трека 100.0 %
CRC теста 5C9E921D
CRC копии 5C9E921D
Точное извлечение (достоверность 4) [0F8C697F] (AR v2)
Копирование... OK
Трек 5
Имя файла R:\Раздача 36\Average White Band - 1996 - Soul Tattoo\05 When We Get Down On It.wav
Пиковый уровень 100.0 %
Скорость извлечения 7.2 X
Качество трека 100.0 %
CRC теста CDDF3B0C
CRC копии CDDF3B0C
Точное извлечение (достоверность 4) [716CFD2B] (AR v2)
Копирование... OK
Трек 6
Имя файла R:\Раздача 36\Average White Band - 1996 - Soul Tattoo\06 Oh Maceo.wav
Пиковый уровень 100.0 %
Скорость извлечения 7.4 X
Качество трека 100.0 %
CRC теста 8167F1F4
CRC копии 8167F1F4
Точное извлечение (достоверность 4) [59002E4C] (AR v2)
Копирование... OK
Трек 7
Имя файла R:\Раздача 36\Average White Band - 1996 - Soul Tattoo\07 Do Ya Really.wav
Пиковый уровень 100.0 %
Скорость извлечения 7.9 X
Качество трека 100.0 %
CRC теста BFF0FA65
CRC копии BFF0FA65
Точное извлечение (достоверность 4) [56AD213D] (AR v2)
Копирование... OK
Трек 8
Имя файла R:\Раздача 36\Average White Band - 1996 - Soul Tattoo\08 I Wanna Be Loved.wav
Пиковый уровень 100.0 %
Скорость извлечения 8.4 X
Качество трека 100.0 %
CRC теста 6ED9B7DD
CRC копии 6ED9B7DD
Точное извлечение (достоверность 4) [2726D4D3] (AR v2)
Копирование... OK
Трек 9
Имя файла R:\Раздача 36\Average White Band - 1996 - Soul Tattoo\09 No Easy Way To Say Goodbye.wav
Пиковый уровень 100.0 %
Скорость извлечения 8.6 X
Качество трека 100.0 %
CRC теста C3C65DAC
CRC копии C3C65DAC
Точное извлечение (достоверность 4) [08C28A7B] (AR v2)
Копирование... OK
Трек 10
Имя файла R:\Раздача 36\Average White Band - 1996 - Soul Tattoo\10 Love Is The Bottom Line.wav
Пиковый уровень 100.0 %
Скорость извлечения 8.4 X
Качество трека 100.0 %
CRC теста D5E1A5E2
CRC копии D5E1A5E2
Точное извлечение (достоверность 4) [E1D8A439] (AR v2)
Копирование... OK
Трек 11
Имя файла R:\Раздача 36\Average White Band - 1996 - Soul Tattoo\11 Welcome To The Real World.wav
Пиковый уровень 100.0 %
Скорость извлечения 9.2 X
Качество трека 100.0 %
CRC теста EEA2E723
CRC копии EEA2E723
Точное извлечение (достоверность 4) [60B66C1F] (AR v2)
Копирование... OK
Трек 12
Имя файла R:\Раздача 36\Average White Band - 1996 - Soul Tattoo\12 Window To Your Soul.wav
Пиковый уровень 100.0 %
Скорость извлечения 5.9 X
Качество трека 99.9 %
CRC теста 8D5F844A
CRC копии 8D5F844A
Точное извлечение (достоверность 4) [22EB9DCA] (AR v2)
Копирование... OK
Все треки извлечены точно
Ошибок не произошло
Конец отчёта
==== Контрольная сумма отчёта F36D4BE0DF7D01EE11CFF23E0092A8A443174EBFACAC1C9B45D5010D98AF69FA ====
 
Содержание индексной карты (.CUE)
REM GENRE Jazz+Funk
REM DATE 1996
REM DISCID 9E0C480C
REM COMMENT "ExactAudioCopy v1.0b3"
CATALOG 0000000000000
PERFORMER "Average White Band"
TITLE "Soul Tattoo"
FILE "01 Soul Mine.wav" WAVE
TRACK 01 AUDIO
TITLE "Soul Mine"
PERFORMER "Average White Band"
INDEX 01 00:00:00
FILE "02 Back To Basics.wav" WAVE
TRACK 02 AUDIO
TITLE "Back To Basics"
PERFORMER "Average White Band"
INDEX 01 00:00:00
FILE "03 Livin' On Borrowed Time.wav" WAVE
TRACK 03 AUDIO
TITLE "Livin' On Borrowed Time"
PERFORMER "Average White Band"
INDEX 01 00:00:00
FILE "04 Every Beat Of My Heart.wav" WAVE
TRACK 04 AUDIO
TITLE "Every Beat Of My Heart"
PERFORMER "Average White Band"
INDEX 01 00:00:00
FILE "05 When We Get Down On It.wav" WAVE
TRACK 05 AUDIO
TITLE "When We Get Down On It"
PERFORMER "Average White Band"
INDEX 01 00:00:00
FILE "06 Oh Maceo.wav" WAVE
TRACK 06 AUDIO
TITLE "Oh Maceo"
PERFORMER "Average White Band"
INDEX 01 00:00:00
FILE "07 Do Ya Really.wav" WAVE
TRACK 07 AUDIO
TITLE "Do Ya Really"
PERFORMER "Average White Band"
INDEX 01 00:00:00
FILE "08 I Wanna Be Loved.wav" WAVE
TRACK 08 AUDIO
TITLE "I Wanna Be Loved"
PERFORMER "Average White Band"
INDEX 01 00:00:00
FILE "09 No Easy Way To Say Goodbye.wav" WAVE
TRACK 09 AUDIO
TITLE "No Easy Way To Say Goodbye"
PERFORMER "Average White Band"
INDEX 01 00:00:00
FILE "10 Love Is The Bottom Line.wav" WAVE
TRACK 10 AUDIO
TITLE "Love Is The Bottom Line"
PERFORMER "Average White Band"
INDEX 01 00:00:00
FILE "11 Welcome To The Real World.wav" WAVE
TRACK 11 AUDIO
TITLE "Welcome To The Real World"
PERFORMER "Average White Band"
INDEX 01 00:00:00
FILE "12 Window To Your Soul.wav" WAVE
TRACK 12 AUDIO
TITLE "Window To Your Soul"
PERFORMER "Average White Band"
INDEX 01 00:00:00
Приватный:
Нет (DHT включён)
Размер:
346.41 Мб (363,234,346 байт) » файлов: 25
Участники:
0 раздают, 1 качают (1 участников всего)
Внешние участники:
2 раздают, 1 качают (3 участников всего) [ Обновить ]
No seeders - write a personal message to user M0p94ok. Нет сидеров - пишите личное сообщение пользователю M0p94ok.
04:12
156
Нет комментариев. Ваш будет первым!