Поиск

(Fusion, Jazz-Funk) [CD] John Lee & Gerry Brown - Mango Sunrise - 1975 (2013 Japan Edition), FLAC (image+.cue), lossless

(Fusion, Jazz-Funk) [CD] John Lee & Gerry Brown - Mango Sunrise - 1975 (2013 Japan Edition), FLAC (image+.cue), lossless
Треклист:
John Lee & Gerry Brown - Mango Sunrise
Жанр: Fusion, Jazz-Funk
Носитель: CD
Страна-производитель диска (релиза): Япония
Год издания: 2013
Издатель (лейбл): Blue Note/EMI Music Japan
Номер по каталогу: TOCJ-50576
Аудиокодек: FLAC (*.flac)
Тип рипа: image+.cue
Битрейт аудио: lossless
Продолжительность: 39:23
Источник (релизер): диск из моей коллекции
Наличие сканов в содержимом раздачи: да
Треклист:
01. Mango Sunrise (Lee) - 5:20
02. Breakfast of Champions (Lee) - 4:06
03. Keep It Real (Lee) - 5:25
04. Ethereal Cereal (Lee) - 3:44
05. The Stop and Go (Lee-Brown) - 3:16
06. Her Celestial Body (Lee) - 5:16
07. Pickin' the Bone (Lee) - 4:06
08. Magnum Opus (Lee) - 5:15
09. Haida (Lee) - 2:54
 
Лог создания рипа
Exact Audio Copy V1.0 beta 4 from 7. December 2014
EAC extraction logfile from 9. February 2015, 21:16
John Lee & Gerry Brown / Mango Sunrise
Used drive : ASUS DRW-24B1LT Adapter: 1 ID: 1
Read mode : Secure
Utilize accurate stream : Yes
Defeat audio cache : Yes
Make use of C2 pointers : No
Read offset correction : 6
Overread into Lead-In and Lead-Out : No
Fill up missing offset samples with silence : Yes
Delete leading and trailing silent blocks : No
Null samples used in CRC calculations : Yes
Used interface : Native Win32 interface for Win NT & 2000
Used output format : User Defined Encoder
Selected bitrate : 768 kBit/s
Quality : High
Add ID3 tag : No
Command line compressor : C:\Program Files\Exact Audio Copy\Flac\flac.exe
Additional command line options : -8 -V -T "ARTIST=%artist%" -T "TITLE=%title%" -T "ALBUM=%albumtitle%" -T "DATE=%year%" -T "TRACKNUMBER=%tracknr%" -T "TOTALTRACKS=%numtracks%" -T "GENRE=%genre%" -T "ALBUMARTIST=%albumartist%" -T "ALBUM ARTIST=%albumartist%" -T "COMMENT=EAC Secure Mode, Test & Copy, AccurateRip, FLAC -8" %source%
TOC of the extracted CD
Track | Start | Length | Start sector | End sector
---------------------------------------------------------
1 | 0:00.00 | 5:19.64 | 0 | 23988
2 | 5:19.64 | 4:06.24 | 23989 | 42462
3 | 9:26.13 | 5:25.29 | 42463 | 66866
4 | 14:51.42 | 3:43.74 | 66867 | 83665
5 | 18:35.41 | 3:16.02 | 83666 | 98367
6 | 21:51.43 | 5:16.01 | 98368 | 122068
7 | 27:07.44 | 4:06.34 | 122069 | 140552
8 | 31:14.03 | 5:14.48 | 140553 | 164150
9 | 36:28.51 | 2:53.74 | 164151 | 177199
Range status and errors
Selected range
Filename F:\audio\John Lee & Gerry Brown - Mango Sunrise.wav
Peak level 98.3 %
Extraction speed 5.2 X
Range quality 100.0 %
Test CRC 93360810
Copy CRC 93360810
Copy OK
No errors occurred
AccurateRip summary
Track 1 not present in database
Track 2 not present in database
Track 3 not present in database
Track 4 not present in database
Track 5 not present in database
Track 6 not present in database
Track 7 not present in database
Track 8 not present in database
Track 9 not present in database
None of the tracks are present in the AccurateRip database
End of status report
---- CUETools DB Plugin V2.1.4
[CTDB TOCID: IjiKMEJoe_.GHz4rPdgoH9LvJiw-] disk not present in database
Submit result: IjiKMEJoe_.GHz4rPdgoH9LvJiw- has been uploaded
==== Log checksum C5E48E12187B333B4FD6796688461D7F4286F343EB6A226768A15001B48B386A ====
 
Содержание индексной карты (.CUE)
REM GENRE Jazz
REM DATE 1975
REM DISCID 75093A09
REM COMMENT "ExactAudioCopy v1.0b4"
PERFORMER "John Lee & Gerry Brown"
TITLE "Mango Sunrise"
FILE "John Lee & Gerry Brown - Mango Sunrise.wav" WAVE
TRACK 01 AUDIO
TITLE "Mango Sunrise"
PERFORMER "John Lee & Gerry Brown"
INDEX 01 00:00:00
TRACK 02 AUDIO
TITLE "Breakfast of Champions"
PERFORMER "John Lee & Gerry Brown"
INDEX 00 05:18:21
INDEX 01 05:19:64
TRACK 03 AUDIO
TITLE "Keep It Real"
PERFORMER "John Lee & Gerry Brown"
INDEX 00 09:24:45
INDEX 01 09:26:13
TRACK 04 AUDIO
TITLE "Ethereal Cereal"
PERFORMER "John Lee & Gerry Brown"
INDEX 00 14:49:74
INDEX 01 14:51:42
TRACK 05 AUDIO
TITLE "The Stop and Go"
PERFORMER "John Lee & Gerry Brown"
INDEX 00 18:33:73
INDEX 01 18:35:41
TRACK 06 AUDIO
TITLE "Her Celestial Body"
PERFORMER "John Lee & Gerry Brown"
INDEX 00 21:50:00
INDEX 01 21:51:43
TRACK 07 AUDIO
TITLE "Pickin' the Bone"
PERFORMER "John Lee & Gerry Brown"
INDEX 00 27:06:01
INDEX 01 27:07:44
TRACK 08 AUDIO
TITLE "Magnum Opus"
PERFORMER "John Lee & Gerry Brown"
INDEX 00 31:12:35
INDEX 01 31:14:03
TRACK 09 AUDIO
TITLE "Haida"
PERFORMER "John Lee & Gerry Brown"
INDEX 00 36:27:08
INDEX 01 36:28:51
 
Отчет CUETools
[CUETools log; Date: 09.02.2015 21:30:01; Version: 2.1.5]
[CTDB TOCID: IjiKMEJoe_.GHz4rPdgoH9LvJiw-] found.
Track | CTDB Status
1 | (1/1) Accurately ripped
2 | (1/1) Accurately ripped
3 | (1/1) Accurately ripped
4 | (1/1) Accurately ripped
5 | (1/1) Accurately ripped
6 | (1/1) Accurately ripped
7 | (1/1) Accurately ripped
8 | (1/1) Accurately ripped
9 | (1/1) Accurately ripped
[AccurateRip ID: 000e071e-0065ec58-75093a09] disk not present in database.
Track Peak [ CRC32 ] [W/O NULL] [ LOG ]
-- 98,3 [93360810] [8D6DF2A7] CRC32
01 97,2 [18385C47] [1963217B]
02 97,2 [A911BB66] [23E9241B]
03 98,1 [1B4E9840] [234FF3D8]
04 98,1 [08E33D61] [81B46FAB]
05 98,3 [B439C4FA] [93080084]
06 97,3 [93EDB878] [52595EF2]
07 97,3 [45742392] [5510548F]
08 97,4 [08DAB6DF] [AAE52AC1]
09 97,1 [40CCF680] [DEE4B0D4]
 
Review by Jason Ankeny
John Lee and Gerry Brown's Blue Note debut pairs the duo with producer Skip Drinkwater, who strips their fusion approach to its bare essentials to create a moody, deeply funky sound that smolders with intensity. Bolstered by session aces spanning from Motown studio great Wah Wah Watson to Belgian guitarist Philip Catherine, Mango Sunrise burns as slow and steady as a stick of dynamite -- while Drinkwater's production is undeniably slick, it also eliminates the superfluous sounds and technical wankery that undermine so much of Lee and Brown's subsequent output.
 
Состав
John Lee - bass, ARP synthesizer (#1), clavinet (#3)
Gerry Brown - drums, percussion
Philip Catherine - electric & acoustic guitars
Eef Albers - electric guitar
Rob Franken - Fender Rhodes electric piano, ARP synthesizer, ARP string ensemble
Eric Tagg (#5) - clavinet, ARP synthesizer
Jasper Van't Hof - clavinet (#8)
Mike Mandel - 2nd ARP synthesizer (#5)
Wah Wah Watson - guitar (#1)
Recorded at Dureco Sound Studio, Weesp, Holland; Morgan Sound Studio, Brussels, Belgium; Electric Lady Studios, New York in June-July 1975.
Приватный:
Нет (DHT включён)
Размер:
286.83 Мб (300,765,643 байт) » файлов: 13
Участники:
0 раздают, 0 качают (0 участников всего)
Внешние участники:
2 раздают, 1 качают (3 участников всего) [ Обновить ]
No seeders - write a personal message to user M0p94ok. Нет сидеров - пишите личное сообщение пользователю M0p94ok.
04:15
73
Нет комментариев. Ваш будет первым!