Поиск

(Funk, Contemporary R&B) [CD] Chris Jasper - Deep Inside - 1994, FLAC (tracks+.cue), lossless

(Funk, Contemporary R&B) [CD] Chris Jasper - Deep Inside - 1994, FLAC (tracks+.cue), lossless
Треклист:
Chris Jasper - Deep Inside
Жанр: Funk, Contemporary R&B
Носитель: CD
Год издания: 1994
Издатель (лейбл): Gold City Records
Номер по каталогу: GC9401
Аудиокодек: FLAC (*.flac)
Тип рипа: tracks+.cue
Битрейт аудио: lossless
Продолжительность: 40:34
Rip by JET 1
Наличие сканов в содержимом раздачи: да
Треклист:
01. Deep Inside (5:14)
02. Cling To Me (6:00)
03. What's Going On (4:53)
04. There For You (5:23)
05. Forever (4:20)
06. Let Me (4:36)
07. Nobody But My Baby (5:41)
08. Don't Take Your Love Away (4:27)
 
Лог создания рипа
Exact Audio Copy V1.0 beta 3 from 29. August 2011
EAC extraction logfile from 30. January 2015, 15:02
Jasper, Chris / Deep Inside
Used drive : ATAPI DVD A DH16A6L-C Adapter: 2 ID: 0
Read mode : Secure
Utilize accurate stream : Yes
Defeat audio cache : Yes
Make use of C2 pointers : No
Read offset correction : 6
Overread into Lead-In and Lead-Out : No
Fill up missing offset samples with silence : Yes
Delete leading and trailing silent blocks : No
Null samples used in CRC calculations : Yes
Used interface : Native Win32 interface for Win NT & 2000
Gap handling : Appended to previous track
Used output format : User Defined Encoder
Selected bitrate : 1024 kBit/s
Quality : High
Add ID3 tag : No
Command line compressor : C:\Program Files\FLAC\flac.exe
Additional command line options : -8 -V -T "ARTIST=%artist%" -T "TITLE=%title%" -T "ALBUM=%albumtitle%" -T "DATE=%year%" -T "TRACKNUMBER=%tracknr%" -T "GENRE=%genre%" -T "PERFORMER=%albuminterpret%" -T "COMPOSER=%composer%" %haslyrics%--tag-from-file=LYRICS="%lyricsfile%"%haslyrics% -T "ALBUMARTIST=%albumartist%" -T "DISCNUMBER=%cdnumber%" -T "TOTALDISCS=%totalcds%" -T "TOTALTRACKS=%numtracks%" -T "COMMENT=%comment%" %source% -o %dest%
TOC of the extracted CD
Track | Start | Length | Start sector | End sector
---------------------------------------------------------
1 | 0:00.00 | 5:13.42 | 0 | 23516
2 | 5:13.42 | 6:00.30 | 23517 | 50546
3 | 11:13.72 | 4:52.65 | 50547 | 72511
4 | 16:06.62 | 5:23.10 | 72512 | 96746
5 | 21:29.72 | 4:20.20 | 96747 | 116266
6 | 25:50.17 | 4:35.40 | 116267 | 136931
7 | 30:25.57 | 5:41.20 | 136932 | 162526
8 | 36:07.02 | 4:27.00 | 162527 | 182551
Track 1
Filename I:\0\Chris Jasper ‎- Deep Inside (1994)\01 - Deep Inside.wav
Pre-gap length 0:00:02.00
Peak level 99.6 %
Extraction speed 3.6 X
Track quality 100.0 %
Test CRC B6C33B46
Copy CRC B6C33B46
Track not present in AccurateRip database
Copy OK
Track 2
Filename I:\0\Chris Jasper ‎- Deep Inside (1994)\02 - Cling To Me.wav
Pre-gap length 0:00:03.35
Peak level 89.6 %
Extraction speed 4.1 X
Track quality 100.0 %
Test CRC 9781EEC6
Copy CRC 9781EEC6
Track not present in AccurateRip database
Copy OK
Track 3
Filename I:\0\Chris Jasper ‎- Deep Inside (1994)\03 - What's Going On.wav
Pre-gap length 0:00:02.62
Peak level 94.7 %
Extraction speed 4.5 X
Track quality 100.0 %
Test CRC 38A1F74F
Copy CRC 38A1F74F
Accurately ripped (confidence 1) [D3942EDA] (AR v2)
Copy OK
Track 4
Filename I:\0\Chris Jasper ‎- Deep Inside (1994)\04 - There For You.wav
Pre-gap length 0:00:02.37
Peak level 95.3 %
Extraction speed 4.9 X
Track quality 100.0 %
Test CRC 5D5B7480
Copy CRC 5D5B7480
Track not present in AccurateRip database
Copy OK
Track 5
Filename I:\0\Chris Jasper ‎- Deep Inside (1994)\05 - Forever.wav
Pre-gap length 0:00:02.35
Peak level 99.5 %
Extraction speed 4.2 X
Track quality 99.9 %
Test CRC 1020EDE8
Copy CRC 1020EDE8
Track not present in AccurateRip database
Copy OK
Track 6
Filename I:\0\Chris Jasper ‎- Deep Inside (1994)\06 - Let Me.wav
Pre-gap length 0:00:02.32
Peak level 99.9 %
Extraction speed 4.5 X
Track quality 99.9 %
Test CRC F4F93F0B
Copy CRC F4F93F0B
Accurately ripped (confidence 1) [BD314E82] (AR v2)
Copy OK
Track 7
Filename I:\0\Chris Jasper ‎- Deep Inside (1994)\07 - Nobody But My Baby.wav
Pre-gap length 0:00:01.07
Peak level 88.7 %
Extraction speed 5.1 X
Track quality 99.9 %
Test CRC A8A390B2
Copy CRC A8A390B2
Track not present in AccurateRip database
Copy OK
Track 8
Filename I:\0\Chris Jasper ‎- Deep Inside (1994)\08 - Don't Take Your Love Away.wav
Pre-gap length 0:00:01.62
Peak level 85.5 %
Extraction speed 6.1 X
Track quality 100.0 %
Test CRC 7E71A169
Copy CRC 7E71A169
Track not present in AccurateRip database
Copy OK
2 track(s) accurately ripped
6 track(s) not present in the AccurateRip database
Some tracks could not be verified as accurate
No errors occurred
End of status report
==== Log checksum 5B5A0C162050D7750F69FC5A511BEB530D498D7AB370104B96BD80C6B6720849 ====
 
Содержание индексной карты (.CUE)
REM GENRE Funk
REM DATE 1994
REM DISCID 72098208
REM COMMENT "ExactAudioCopy v1.0b3"
PERFORMER "Chris Jasper"
TITLE "Deep Inside"
FILE "01 - Deep Inside.wav" WAVE
TRACK 01 AUDIO
TITLE "Deep Inside"
PERFORMER "Chris Jasper"
INDEX 01 00:00:00
TRACK 02 AUDIO
TITLE "Cling To Me"
PERFORMER "Chris Jasper"
INDEX 00 05:10:07
FILE "02 - Cling To Me.wav" WAVE
INDEX 01 00:00:00
TRACK 03 AUDIO
TITLE "What's Going On"
PERFORMER "Chris Jasper"
INDEX 00 05:57:43
FILE "03 - What's Going On.wav" WAVE
INDEX 01 00:00:00
TRACK 04 AUDIO
TITLE "There For You"
PERFORMER "Chris Jasper"
INDEX 00 04:50:28
FILE "04 - There For You.wav" WAVE
INDEX 01 00:00:00
TRACK 05 AUDIO
TITLE "Forever"
PERFORMER "Chris Jasper"
INDEX 00 05:20:50
FILE "05 - Forever.wav" WAVE
INDEX 01 00:00:00
TRACK 06 AUDIO
TITLE "Let Me"
PERFORMER "Chris Jasper"
INDEX 00 04:17:63
FILE "06 - Let Me.wav" WAVE
INDEX 01 00:00:00
TRACK 07 AUDIO
TITLE "Nobody But My Baby"
PERFORMER "Chris Jasper"
INDEX 00 04:34:33
FILE "07 - Nobody But My Baby.wav" WAVE
INDEX 01 00:00:00
TRACK 08 AUDIO
TITLE "Don't Take Your Love Away"
PERFORMER "Chris Jasper"
INDEX 00 05:39:33
FILE "08 - Don't Take Your Love Away.wav" WAVE
INDEX 01 00:00:00
Приватный:
Нет (DHT включён)
Размер:
306.23 Мб (321,104,856 байт) » файлов: 18
Участники:
0 раздают, 0 качают (0 участников всего)
Внешние участники:
2 раздают, 1 качают (3 участников всего) [ Обновить ]
No seeders - write a personal message to user M0p94ok. Нет сидеров - пишите личное сообщение пользователю M0p94ok.
04:15
75
Нет комментариев. Ваш будет первым!