Поиск

(Soul, R&B) [CD] By All Means - It's Real - 1992, FLAC (tracks+.cue), lossless

(Soul, R&B) [CD] By All Means - It's Real - 1992, FLAC (tracks+.cue), lossless
Треклист:
By All Means - It's Real
Жанр: Soul, R&B
Носитель: CD
Год издания: 1992
Издатель (лейбл): Motown
Номер по каталогу: 3746363442
Аудиокодек: FLAC (*.flac)
Тип рипа: tracks+.cue
Битрейт аудио: lossless
Продолжительность: 51:57
Rip by JET 1
Наличие сканов в содержимом раздачи: да
Треклист:
01. Love Lies (7:35)
02. The Feeling I Get (6:28)
03. Don't Change (4:39)
04. Tonight (5:04)
05. Ain't Nothing Like The Real Thing (4:27)
06. In Your Arms (4:51)
07. I Wanna Be Loved (5:09)
08. Say You'll Never Leave Me (5:08)
09. Never Give Up (4:04)
10. Hello Goodbye (4:32)
 
 
Лог создания рипа
Exact Audio Copy V1.0 beta 3 from 29. August 2011
EAC extraction logfile from 26. January 2015, 14:58
By All Means / It's Real
Used drive : ATAPI DVD A DH16A6L-C Adapter: 2 ID: 0
Read mode : Secure
Utilize accurate stream : Yes
Defeat audio cache : Yes
Make use of C2 pointers : No
Read offset correction : 6
Overread into Lead-In and Lead-Out : No
Fill up missing offset samples with silence : Yes
Delete leading and trailing silent blocks : No
Null samples used in CRC calculations : Yes
Used interface : Native Win32 interface for Win NT & 2000
Gap handling : Appended to previous track
Used output format : User Defined Encoder
Selected bitrate : 1024 kBit/s
Quality : High
Add ID3 tag : No
Command line compressor : C:\Program Files\FLAC\flac.exe
Additional command line options : -8 -V -T "ARTIST=%artist%" -T "TITLE=%title%" -T "ALBUM=%albumtitle%" -T "DATE=%year%" -T "TRACKNUMBER=%tracknr%" -T "GENRE=%genre%" -T "PERFORMER=%albuminterpret%" -T "COMPOSER=%composer%" %haslyrics%--tag-from-file=LYRICS="%lyricsfile%"%haslyrics% -T "ALBUMARTIST=%albumartist%" -T "DISCNUMBER=%cdnumber%" -T "TOTALDISCS=%totalcds%" -T "TOTALTRACKS=%numtracks%" -T "COMMENT=%comment%" %source% -o %dest%
TOC of the extracted CD
Track | Start | Length | Start sector | End sector
---------------------------------------------------------
1 | 0:00.00 | 7:35.08 | 0 | 34132
2 | 7:35.08 | 6:27.65 | 34133 | 63222
3 | 14:02.73 | 4:39.27 | 63223 | 84174
4 | 18:42.25 | 5:04.30 | 84175 | 107004
5 | 23:46.55 | 4:26.48 | 107005 | 127002
6 | 28:13.28 | 4:50.70 | 127003 | 148822
7 | 33:04.23 | 5:08.62 | 148823 | 171984
8 | 38:13.10 | 5:07.38 | 171985 | 195047
9 | 43:20.48 | 4:04.22 | 195048 | 213369
10 | 47:24.70 | 4:31.43 | 213370 | 233737
Track 1
Filename I:\0\By All Means - It's Real (1992)\01 - Love Lies.wav
Pre-gap length 0:00:02.00
Peak level 98.7 %
Extraction speed 4.1 X
Track quality 100.0 %
Test CRC 61AF2283
Copy CRC 61AF2283
Accurately ripped (confidence 4) [4BAEA7A7] (AR v2)
Copy OK
Track 2
Filename I:\0\By All Means - It's Real (1992)\02 - The Feeling I Get.wav
Pre-gap length 0:00:02.48
Peak level 99.5 %
Extraction speed 4.8 X
Track quality 100.0 %
Test CRC 4E991DC9
Copy CRC 4E991DC9
Accurately ripped (confidence 4) [9F1FF5A5] (AR v2)
Copy OK
Track 3
Filename I:\0\By All Means - It's Real (1992)\03 - Don't Change.wav
Pre-gap length 0:00:03.40
Peak level 97.2 %
Extraction speed 5.1 X
Track quality 100.0 %
Test CRC CAEAEA8D
Copy CRC CAEAEA8D
Accurately ripped (confidence 4) [52050546] (AR v2)
Copy OK
Track 4
Filename I:\0\By All Means - It's Real (1992)\04 - Tonight.wav
Pre-gap length 0:00:01.67
Peak level 93.2 %
Extraction speed 5.5 X
Track quality 100.0 %
Test CRC 95A51A59
Copy CRC 95A51A59
Accurately ripped (confidence 4) [1D90DC9E] (AR v2)
Copy OK
Track 5
Filename I:\0\By All Means - It's Real (1992)\05 - Aint Nothing Like The Real Thing.wav
Pre-gap length 0:00:03.50
Peak level 98.6 %
Extraction speed 5.8 X
Track quality 100.0 %
Test CRC 0C52CE08
Copy CRC 0C52CE08
Accurately ripped (confidence 4) [7E951E68] (AR v2)
Copy OK
Track 6
Filename I:\0\By All Means - It's Real (1992)\06 - In Your Arms.wav
Pre-gap length 0:00:03.10
Peak level 98.6 %
Extraction speed 6.1 X
Track quality 100.0 %
Test CRC 3737916A
Copy CRC 3737916A
Accurately ripped (confidence 4) [C844E4E7] (AR v2)
Copy OK
Track 7
Filename I:\0\By All Means - It's Real (1992)\07 - I wanna Be Loved.wav
Pre-gap length 0:00:01.43
Peak level 93.5 %
Extraction speed 6.5 X
Track quality 100.0 %
Test CRC F80CB462
Copy CRC F80CB462
Accurately ripped (confidence 4) [206ADEA5] (AR v2)
Copy OK
Track 8
Filename I:\0\By All Means - It's Real (1992)\08 - Say You'll Never Leave Me.wav
Pre-gap length 0:00:03.10
Peak level 95.9 %
Extraction speed 6.7 X
Track quality 100.0 %
Test CRC 73F50EFB
Copy CRC 73F50EFB
Accurately ripped (confidence 4) [14C3C1ED] (AR v2)
Copy OK
Track 9
Filename I:\0\By All Means - It's Real (1992)\09 - Never Give Up.wav
Pre-gap length 0:00:02.23
Peak level 100.0 %
Extraction speed 6.8 X
Track quality 100.0 %
Test CRC B590D821
Copy CRC B590D821
Accurately ripped (confidence 4) [A5D111E4] (AR v2)
Copy OK
Track 10
Filename I:\0\By All Means - It's Real (1992)\10 - Hello Goodbye.wav
Pre-gap length 0:00:02.12
Peak level 97.3 %
Extraction speed 5.8 X
Track quality 99.9 %
Test CRC 090563AB
Copy CRC 090563AB
Accurately ripped (confidence 4) [421C620C] (AR v2)
Copy OK
All tracks accurately ripped
No errors occurred
End of status report
==== Log checksum EC70DC0277266EA5CC724FB5868C676A39ACB33ACA2EBD8137C11257758692FF ====
 
Содержание индексной карты (.CUE)
REM GENRE R&B
REM DATE 1992
REM DISCID 960C2C0A
REM COMMENT "ExactAudioCopy v1.0b3"
PERFORMER "By All Means"
TITLE "It's Real"
FILE "01 - Love Lies.wav" WAVE
TRACK 01 AUDIO
TITLE "Love Lies"
PERFORMER "By All Means"
INDEX 01 00:00:00
TRACK 02 AUDIO
TITLE "The Feeling I Get"
PERFORMER "By All Means"
INDEX 00 07:32:35
FILE "02 - The Feeling I Get.wav" WAVE
INDEX 01 00:00:00
TRACK 03 AUDIO
TITLE "Don't Change"
PERFORMER "By All Means"
INDEX 00 06:24:25
FILE "03 - Don't Change.wav" WAVE
INDEX 01 00:00:00
TRACK 04 AUDIO
TITLE "Tonight"
PERFORMER "By All Means"
INDEX 00 04:37:35
FILE "04 - Tonight.wav" WAVE
INDEX 01 00:00:00
TRACK 05 AUDIO
TITLE "Aint Nothing Like The Real Thing"
PERFORMER "By All Means"
INDEX 00 05:00:55
FILE "05 - Aint Nothing Like The Real Thing.wav" WAVE
INDEX 01 00:00:00
TRACK 06 AUDIO
TITLE "In Your Arms"
PERFORMER "By All Means"
INDEX 00 04:23:38
FILE "06 - In Your Arms.wav" WAVE
INDEX 01 00:00:00
TRACK 07 AUDIO
TITLE "I Wanna Be Loved"
PERFORMER "By All Means"
INDEX 00 04:49:27
FILE "07 - I Wanna Be Loved.wav" WAVE
INDEX 01 00:00:00
TRACK 08 AUDIO
TITLE "Say You'll Never Leave Me"
PERFORMER "By All Means"
INDEX 00 05:05:52
FILE "08 - Say You'll Never Leave Me.wav" WAVE
INDEX 01 00:00:00
TRACK 09 AUDIO
TITLE "Never Give Up"
PERFORMER "By All Means"
INDEX 00 05:05:15
FILE "09 - Never Give Up.wav" WAVE
INDEX 01 00:00:00
TRACK 10 AUDIO
TITLE "Hello Goodbye"
PERFORMER "By All Means"
INDEX 00 04:02:10
FILE "10 - Hello Goodbye.wav" WAVE
INDEX 01 00:00:00
Приватный:
Нет (DHT включён)
Размер:
423.13 Мб (443,679,653 байт) » файлов: 19
Участники:
0 раздают, 0 качают (0 участников всего)
Внешние участники:
1 раздают, 0 качают (1 участников всего) [ Обновить ]
Есть вопросы - пишите личное сообщение пользователю M0p94ok.
04:16
62
Нет комментариев. Ваш будет первым!