Поиск

(Jazz-Funk) [CD] Mike Clark - Carnival of Soul - 2010, FLAC (tracks+.cue), lossless

(Jazz-Funk) [CD] Mike Clark - Carnival of Soul - 2010, FLAC (tracks+.cue), lossless
Треклист:
Mike Clark - Carnival of Soul
Жанр: Jazz-Funk
Носитель: CD
Страна-производитель диска (релиза): США
Год издания: 2010
Издатель (лейбл): Owl Studios
Номер по каталогу: OWL00136
Аудиокодек: FLAC (*.flac)
Тип рипа: tracks+.cue
Битрейт аудио: lossless
Продолжительность: 59:21
Источник (релизер): GiantAlbion (what)
Наличие сканов в содержимом раздачи: нет
Треклист:
01. T's Boogaloo (Clark) - 5:25
02. Monk's Dream (Monk) - 6:10
03. Cry Me a River (Hamilton) - 5:14
04. Water on the Moon (Clark-Z) - 6:03
05. Turok Son of Stone (Clark-Pittson) - 7:31
06. Angel Eyes (Brent-Dennis) - 4:28
07. Bookin' (Bump) - 6:31
08. Zoyd (Pittson) - 5:59
09. Run Straight Down (Pittson) - 4:20
10. Catlett Outta the Bag (Clark-White) - 7:40
Состав:
Mike Clark, Lenny White - drums
Rob Dixon - tenor saxophone
Tim Ouimette - trumpet
Steve Homan, Rez Abbasi - guitar
Delbert Bump, Jerry Z - organ
Jeff Pittson - organ and keyboards
Kevin McKendree - piano
Delbert McClinton - vocals
 
Лог создания рипа
X Lossless Decoder version 20110228 (129.0)
XLD extraction logfile from 2011-03-02 15:51:50 -0500
Mike Clark / Carnival of Soul
Used drive : PIONEER DVD-RW DVR-K06A (revision Q624)
Ripper mode : CDParanoia III 10.2
Disable audio cache : OK for the drive with a cache less than 2750KiB
Make use of C2 pointers : NO
Read offset correction : 48
Max retry count : 100
Gap status : Analyzed, Appended
TOC of the extracted CD
Track | Start | Length | Start sector | End sector
---------------------------------------------------------
1 | 00:00:00 | 05:25:27 | 0 | 24401
2 | 05:25:27 | 06:10:19 | 24402 | 52170
3 | 11:35:46 | 05:13:43 | 52171 | 75688
4 | 16:49:14 | 06:02:73 | 75689 | 102911
5 | 22:52:12 | 07:31:08 | 102912 | 136744
6 | 30:23:20 | 04:27:44 | 136745 | 156813
7 | 34:50:64 | 06:31:26 | 156814 | 186164
8 | 41:22:15 | 05:59:08 | 186165 | 213097
9 | 47:21:23 | 04:20:05 | 213098 | 232602
10 | 51:41:28 | 07:39:43 | 232603 | 267070
AccurateRip Summary
Disc not found in AccurateRip DB.
All Tracks
Album gain : -8.46 dB
Peak : 1.000000
Statistics
Read error : 0
Skipped (treated as error) : 0
Edge jitter error (maybe fixed) : 0
Atom jitter error (maybe fixed) : 0
Drift error (maybe fixed) : 0
Dropped bytes error (maybe fixed) : 0
Duplicated bytes error (maybe fixed) : 0
Track 01
Filename : /Volumes/Hambergur Pimp/Torrents/Mike Clark - Carnival of Soul - 2010/01 - T's Boogaloo.flac
Pre-gap length : 00:02:00
Track gain : -7.83 dB
Peak : 1.000000
CRC32 hash (test run) : 7E4BDF52
CRC32 hash : 7E4BDF52
CRC32 hash (skip zero) : 922FBC71
AccurateRip signature : 971127A9
->Track not present in AccurateRip database.
Statistics
Read error : 0
Skipped (treated as error) : 0
Edge jitter error (maybe fixed) : 0
Atom jitter error (maybe fixed) : 0
Drift error (maybe fixed) : 0
Dropped bytes error (maybe fixed) : 0
Duplicated bytes error (maybe fixed) : 0
Inconsistency in error sectors : 0
Track 02
Filename : /Volumes/Hambergur Pimp/Torrents/Mike Clark - Carnival of Soul - 2010/02 - Monk's Dream.flac
Pre-gap length : 00:02:00
Track gain : -6.45 dB
Peak : 1.000000
CRC32 hash (test run) : 3016E9C8
CRC32 hash : 3016E9C8
CRC32 hash (skip zero) : D9ABC9B6
AccurateRip signature : A77C221D
->Track not present in AccurateRip database.
Statistics
Read error : 0
Skipped (treated as error) : 0
Edge jitter error (maybe fixed) : 0
Atom jitter error (maybe fixed) : 0
Drift error (maybe fixed) : 0
Dropped bytes error (maybe fixed) : 0
Duplicated bytes error (maybe fixed) : 0
Inconsistency in error sectors : 0
Track 03
Filename : /Volumes/Hambergur Pimp/Torrents/Mike Clark - Carnival of Soul - 2010/03 - Cry Me A River.flac
Pre-gap length : 00:02:00
Track gain : -6.59 dB
Peak : 1.000000
CRC32 hash (test run) : B4B83168
CRC32 hash : B4B83168
CRC32 hash (skip zero) : 793F9105
AccurateRip signature : 423C872B
->Track not present in AccurateRip database.
Statistics
Read error : 0
Skipped (treated as error) : 0
Edge jitter error (maybe fixed) : 0
Atom jitter error (maybe fixed) : 0
Drift error (maybe fixed) : 0
Dropped bytes error (maybe fixed) : 0
Duplicated bytes error (maybe fixed) : 0
Inconsistency in error sectors : 0
Track 04
Filename : /Volumes/Hambergur Pimp/Torrents/Mike Clark - Carnival of Soul - 2010/04 - Water On The Moon.flac
Pre-gap length : 00:02:00
Track gain : -8.26 dB
Peak : 1.000000
CRC32 hash (test run) : B2108D4C
CRC32 hash : B2108D4C
CRC32 hash (skip zero) : 7AF3D043
AccurateRip signature : D6FB3CCD
->Track not present in AccurateRip database.
Statistics
Read error : 0
Skipped (treated as error) : 0
Edge jitter error (maybe fixed) : 0
Atom jitter error (maybe fixed) : 0
Drift error (maybe fixed) : 0
Dropped bytes error (maybe fixed) : 0
Duplicated bytes error (maybe fixed) : 0
Inconsistency in error sectors : 0
Track 05
Filename : /Volumes/Hambergur Pimp/Torrents/Mike Clark - Carnival of Soul - 2010/05 - Turok Son of Stone.flac
Pre-gap length : 00:02:00
Track gain : -8.94 dB
Peak : 1.000000
CRC32 hash (test run) : 5CF935AC
CRC32 hash : 5CF935AC
CRC32 hash (skip zero) : 0071623B
AccurateRip signature : 154A6FF8
->Track not present in AccurateRip database.
Statistics
Read error : 0
Skipped (treated as error) : 0
Edge jitter error (maybe fixed) : 0
Atom jitter error (maybe fixed) : 0
Drift error (maybe fixed) : 0
Dropped bytes error (maybe fixed) : 0
Duplicated bytes error (maybe fixed) : 0
Inconsistency in error sectors : 0
Track 06
Filename : /Volumes/Hambergur Pimp/Torrents/Mike Clark - Carnival of Soul - 2010/06 - Angel Eyes.flac
Track gain : -5.14 dB
Peak : 1.000000
CRC32 hash (test run) : 381F8D8C
CRC32 hash : 381F8D8C
CRC32 hash (skip zero) : 180D0AD7
AccurateRip signature : AB72AE59
->Track not present in AccurateRip database.
Statistics
Read error : 0
Skipped (treated as error) : 0
Edge jitter error (maybe fixed) : 0
Atom jitter error (maybe fixed) : 0
Drift error (maybe fixed) : 0
Dropped bytes error (maybe fixed) : 0
Duplicated bytes error (maybe fixed) : 0
Inconsistency in error sectors : 0
Track 07
Filename : /Volumes/Hambergur Pimp/Torrents/Mike Clark - Carnival of Soul - 2010/07 - Bookin'.flac
Pre-gap length : 00:02:00
Track gain : -6.73 dB
Peak : 1.000000
CRC32 hash (test run) : BBFFC1B5
CRC32 hash : BBFFC1B5
CRC32 hash (skip zero) : 5F747F3E
AccurateRip signature : F5164F80
->Track not present in AccurateRip database.
Statistics
Read error : 0
Skipped (treated as error) : 0
Edge jitter error (maybe fixed) : 0
Atom jitter error (maybe fixed) : 0
Drift error (maybe fixed) : 0
Dropped bytes error (maybe fixed) : 0
Duplicated bytes error (maybe fixed) : 0
Inconsistency in error sectors : 0
Track 08
Filename : /Volumes/Hambergur Pimp/Torrents/Mike Clark - Carnival of Soul - 2010/08 - Zoyd.flac
Pre-gap length : 00:02:00
Track gain : -9.48 dB
Peak : 1.000000
CRC32 hash (test run) : 15A4D873
CRC32 hash : 15A4D873
CRC32 hash (skip zero) : 68367CA5
AccurateRip signature : E067EEB7
->Track not present in AccurateRip database.
Statistics
Read error : 0
Skipped (treated as error) : 0
Edge jitter error (maybe fixed) : 0
Atom jitter error (maybe fixed) : 0
Drift error (maybe fixed) : 0
Dropped bytes error (maybe fixed) : 0
Duplicated bytes error (maybe fixed) : 0
Inconsistency in error sectors : 0
Track 09
Filename : /Volumes/Hambergur Pimp/Torrents/Mike Clark - Carnival of Soul - 2010/09 - Run Straight Down.flac
Pre-gap length : 00:02:00
Track gain : -9.90 dB
Peak : 0.994507
CRC32 hash (test run) : 2C1E8FB8
CRC32 hash : 2C1E8FB8
CRC32 hash (skip zero) : 4ABFE47D
AccurateRip signature : 9E30FE5D
->Track not present in AccurateRip database.
Statistics
Read error : 0
Skipped (treated as error) : 0
Edge jitter error (maybe fixed) : 0
Atom jitter error (maybe fixed) : 0
Drift error (maybe fixed) : 0
Dropped bytes error (maybe fixed) : 0
Duplicated bytes error (maybe fixed) : 0
Inconsistency in error sectors : 0
Track 10
Filename : /Volumes/Hambergur Pimp/Torrents/Mike Clark - Carnival of Soul - 2010/10 - Catlett Outta the Bag.flac
Pre-gap length : 00:02:00
Track gain : -8.48 dB
Peak : 1.000000
CRC32 hash (test run) : D25AE0B2
CRC32 hash : D25AE0B2
CRC32 hash (skip zero) : 8989FEF9
AccurateRip signature : D27A23C1
->Track not present in AccurateRip database.
Statistics
Read error : 0
Skipped (treated as error) : 0
Edge jitter error (maybe fixed) : 0
Atom jitter error (maybe fixed) : 0
Drift error (maybe fixed) : 0
Dropped bytes error (maybe fixed) : 0
Duplicated bytes error (maybe fixed) : 0
Inconsistency in error sectors : 0
No errors occurred
End of status report
 
Содержание индексной карты (.CUE)
TITLE "Carnival of Soul"
PERFORMER "Mike Clark"
REM GENRE "Jazz"
REM DATE "2010"
REM DISCID 7D0DE80A
FILE "01 - T's Boogaloo.wav" WAVE
TRACK 01 AUDIO
TITLE "T's Boogaloo"
ISRC USX5E1010030
INDEX 01 00:00:00
TRACK 02 AUDIO
TITLE "Monk's Dream"
ISRC USX5E1010031
INDEX 00 05:23:27
FILE "02 - Monk's Dream.wav" WAVE
INDEX 01 00:00:00
TRACK 03 AUDIO
TITLE "Cry Me a River"
ISRC USX5E1010032
INDEX 00 06:08:19
FILE "03 - Cry Me a River.wav" WAVE
INDEX 01 00:00:00
TRACK 04 AUDIO
TITLE "Water on the Moon"
ISRC USX5E1010033
INDEX 00 05:11:43
FILE "04 - Water on the Moon.wav" WAVE
INDEX 01 00:00:00
TRACK 05 AUDIO
TITLE "Turok Son of Stone"
ISRC USX5E1010034
INDEX 00 06:00:73
FILE "05 - Turok Son of Stone.wav" WAVE
INDEX 01 00:00:00
FILE "06 - Angel Eyes.wav" WAVE
TRACK 06 AUDIO
TITLE "Angel Eyes"
ISRC USX5E1010035
INDEX 01 00:00:00
TRACK 07 AUDIO
TITLE "Bookin'"
ISRC USX5E1010036
INDEX 00 04:25:44
FILE "07 - Bookin'.wav" WAVE
INDEX 01 00:00:00
TRACK 08 AUDIO
TITLE "Zoyd"
ISRC USX5E1010037
INDEX 00 06:29:26
FILE "08 - Zoyd.wav" WAVE
INDEX 01 00:00:00
TRACK 09 AUDIO
TITLE "Run Straight Down"
ISRC USX5E1010038
INDEX 00 05:57:08
FILE "09 - Run Straight Down.wav" WAVE
INDEX 01 00:00:00
TRACK 10 AUDIO
TITLE "Catlett Outta the Bag"
ISRC USX5E1010039
INDEX 00 04:18:05
FILE "10 - Catlett Outta the Bag.wav" WAVE
INDEX 01 00:00:00
 
Отчет CUETools
[CUETools log; Date: 22.05.2015 1:33:36; Version: 2.1.5]
[CTDB TOCID: G0D5aeNx2fhhKs7StzfCpWteNOo-] found.
Track | CTDB Status
1 | (2/2) Accurately ripped
2 | (2/2) Accurately ripped
3 | (2/2) Accurately ripped
4 | (2/2) Accurately ripped
5 | (2/2) Accurately ripped
6 | (2/2) Accurately ripped
7 | (2/2) Accurately ripped
8 | (2/2) Accurately ripped
9 | (2/2) Accurately ripped
10 | (2/2) Accurately ripped
[AccurateRip ID: 001616f6-00b12ea7-7d0de80a] disk not present in database.
Track Peak [ CRC32 ] [W/O NULL]
-- 100,0 [C387AD20] [C0495121]
01 100,0 [7E4BDF52] [922FBC71]
02 100,0 [3016E9C8] [D9ABC9B6]
03 100,0 [B4B83168] [793F9105]
04 100,0 [B2108D4C] [7AF3D043]
05 100,0 [5CF935AC] [0071623B]
06 100,0 [381F8D8C] [180D0AD7]
07 100,0 [BBFFC1B5] [5F747F3E]
08 100,0 [15A4D873] [68367CA5]
09 99,4 [2C1E8FB8] [4ABFE47D]
10 100,0 [D25AE0B2] [8989FEF9]
 
Review by Michael G. Nastos
Mike Clark's funk and jazz drumming is put to the ultimate test on this, his ninth recording as a leader, also showing his prodigious chops in bebop and organ combo soul-jazz. Various bands supply the accompaniment on selected tracks, with organists Jerry Z, Jeff Pittson, or Delbert Bump (a pseudonym?) at the center of the groupings. While not known as a composer, Clark's name does show up on four tracks, with the overall music hefty and fatback or hard swinging and exuberant. Where "T's Boogaloo" might be a signature tune in its hip chunky funk, Clark also enjoys angular melodies as in Thelonious Monk's "Monk's Dream" and the bopping "Turok Son of Stone." Going through continual countermoves of easy swing and fast, furious bop, R&B, or rock, Clark's ever-changing bands provide plenty of fuel for his imagination. Electric guitarist Rez Abbasi is most surprising; known for his ethnic fusion style, here he is squarely in the pocket. Rob Dixon is the constant, as his brawny, developing saxophone sound comes straight out of the Texas tenor tradition. Delbert McClinton even makes a guest appearance, singing the bluesy "Cry Me a River." The drummer turns more heads than normal with a perfect Max Roach imitation before launching into an electrified rip-snorting Head Hunters-like "Catlett Outta the Bag." Where Clark's previous album, Blueprints of Jazz, is a superior item, Carnival of Soul fits nicely with all of the work Clark has done, and further synthesizes his potpourri expertise in many idioms and subgenres of progressive modern jazz.
Приватный:
Нет (DHT включён)
Размер:
405.91 Мб (425,627,794 байт) » файлов: 16
Участники:
0 раздают, 0 качают (0 участников всего)
Внешние участники:
2 раздают, 1 качают (3 участников всего) [ Обновить ]
Есть вопросы - пишите личное сообщение пользователю M0p94ok.
06:10
57
Нет комментариев. Ваш будет первым!