Поиск

(Funk, Soul) [CD] Jenny Burton - Jenny Burton (1985) - 2014 {Remastered & Expanded Edition}, FLAC (tracks+.cue), lossless

(Funk, Soul) [CD] Jenny Burton - Jenny Burton (1985) - 2014 {Remastered & Expanded Edition}, FLAC (tracks+.cue), lossless
Треклист:
Jenny Burton - Jenny Burton (1985)
Жанр: Funk, Soul
Носитель: CD
Год издания: 2014
Издатель (лейбл): Funkytowngrooves
Номер по каталогу: FTG-373
Аудиокодек: FLAC (*.flac)
Тип рипа: tracks+.cue
Битрейт аудио: lossless
Продолжительность: 60:06
Rip by JET 1
Наличие сканов в содержимом раздачи: да
Треклист:
01. Bad Habit (5:28)
02. Dancing For My Love (6:20)
03. Lets Gets Back To Love (4:52)
04. Love Runs Deeper (4:53)
05. If You Liet Me (5:06)
06. Load It Up (6:09)
07. Nobody Can Tell Me (5:19)
08. Once In A Lifetime Love (3:50)
Bonus Tracks:
09. Dancing For My Love (Extended Vocal Mix) (7:13)
10. Dancing For My Love (Dub Mix) (6:53)
11. Bad Habit (7 Inch Version) (4:03)
 
 
Лог создания рипа
Exact Audio Copy V1.0 beta 3 from 29. August 2011
EAC extraction logfile from 13. May 2015, 3:10
Jenny Burton / Jenny Burton (Expanded Edition)
Used drive : GENERIC CDRCB05 Adapter: 4 ID: 0
Read mode : Secure
Utilize accurate stream : Yes
Defeat audio cache : Yes
Make use of C2 pointers : No
Read offset correction : 102
Overread into Lead-In and Lead-Out : No
Fill up missing offset samples with silence : Yes
Delete leading and trailing silent blocks : No
Null samples used in CRC calculations : Yes
Used interface : Native Win32 interface for Win NT & 2000
Gap handling : Appended to previous track
Used output format : User Defined Encoder
Selected bitrate : 1024 kBit/s
Quality : High
Add ID3 tag : No
Command line compressor : C:\Program Files\FLAC\flac.exe
Additional command line options : -8 -V -T "ARTIST=%artist%" -T "TITLE=%title%" -T "ALBUM=%albumtitle%" -T "DATE=%year%" -T "TRACKNUMBER=%tracknr%" -T "GENRE=%genre%" -T "PERFORMER=%albuminterpret%" -T "COMPOSER=%composer%" %haslyrics%--tag-from-file=LYRICS="%lyricsfile%"%haslyrics% -T "ALBUMARTIST=%albumartist%" -T "DISCNUMBER=%cdnumber%" -T "TOTALDISCS=%totalcds%" -T "TOTALTRACKS=%numtracks%" -T "COMMENT=%comment%" %source% -o %dest%
TOC of the extracted CD
Track | Start | Length | Start sector | End sector
---------------------------------------------------------
1 | 0:00.00 | 5:27.40 | 0 | 24564
2 | 5:27.40 | 6:20.15 | 24565 | 53079
3 | 11:47.55 | 4:52.03 | 53080 | 74982
4 | 16:39.58 | 4:53.35 | 74983 | 96992
5 | 21:33.18 | 5:05.57 | 96993 | 119924
6 | 26:39.00 | 6:09.04 | 119925 | 147603
7 | 32:48.04 | 5:19.20 | 147604 | 171548
8 | 38:07.24 | 3:50.32 | 171549 | 188830
9 | 41:57.56 | 7:12.56 | 188831 | 221286
10 | 49:10.37 | 6:52.38 | 221287 | 252224
11 | 56:03.00 | 4:03.27 | 252225 | 270476
Track 1
Filename H:\0\..................00\post\Jenny Burton - Jenny Burton (1985) [2014 FTG]\01 - Bad Habit.wav
Pre-gap length 0:00:02.00
Peak level 98.8 %
Extraction speed 1.5 X
Track quality 100.0 %
Test CRC 2F1996DA
Copy CRC 2F1996DA
Accurately ripped (confidence 2) [999C9A45] (AR v2)
Copy OK
Track 2
Filename H:\0\..................00\post\Jenny Burton - Jenny Burton (1985) [2014 FTG]\02 - Dancing For My Love.wav
Pre-gap length 0:00:01.00
Peak level 98.9 %
Extraction speed 1.8 X
Track quality 100.0 %
Test CRC D9439286
Copy CRC D9439286
Accurately ripped (confidence 2) [3A46322B] (AR v2)
Copy OK
Track 3
Filename H:\0\..................00\post\Jenny Burton - Jenny Burton (1985) [2014 FTG]\03 - Lets Gets Back To Love.wav
Pre-gap length 0:00:01.00
Peak level 98.9 %
Extraction speed 1.9 X
Track quality 100.0 %
Test CRC 83A152E6
Copy CRC 83A152E6
Accurately ripped (confidence 2) [2D29A9E1] (AR v2)
Copy OK
Track 4
Filename H:\0\..................00\post\Jenny Burton - Jenny Burton (1985) [2014 FTG]\04 - Love Runs Deeper.wav
Pre-gap length 0:00:01.00
Peak level 97.7 %
Extraction speed 1.9 X
Track quality 99.9 %
Test CRC 17B64F61
Copy CRC 17B64F61
Accurately ripped (confidence 2) [17205761] (AR v2)
Copy OK
Track 5
Filename H:\0\..................00\post\Jenny Burton - Jenny Burton (1985) [2014 FTG]\05 - If You Liet Me.wav
Pre-gap length 0:00:01.00
Peak level 98.8 %
Extraction speed 2.0 X
Track quality 99.9 %
Test CRC 6CD03B8D
Copy CRC 6CD03B8D
Accurately ripped (confidence 2) [2726C9ED] (AR v2)
Copy OK
Track 6
Filename H:\0\..................00\post\Jenny Burton - Jenny Burton (1985) [2014 FTG]\06 - Load It Up.wav
Pre-gap length 0:00:01.00
Peak level 100.0 %
Extraction speed 2.4 X
Track quality 100.0 %
Test CRC C4481DDC
Copy CRC C4481DDC
Accurately ripped (confidence 2) [2AB9C0AD] (AR v2)
Copy OK
Track 7
Filename H:\0\..................00\post\Jenny Burton - Jenny Burton (1985) [2014 FTG]\07 - Nobody Can Tell Me.wav
Pre-gap length 0:00:01.00
Peak level 97.8 %
Extraction speed 2.5 X
Track quality 100.0 %
Test CRC F5DA74C1
Copy CRC F5DA74C1
Accurately ripped (confidence 2) [C415D8EA] (AR v2)
Copy OK
Track 8
Filename H:\0\..................00\post\Jenny Burton - Jenny Burton (1985) [2014 FTG]\08 - Once In A Lifetime Love.wav
Pre-gap length 0:00:01.00
Peak level 97.7 %
Extraction speed 2.2 X
Track quality 99.9 %
Test CRC C65A929F
Copy CRC C65A929F
Accurately ripped (confidence 2) [1478DBCF] (AR v2)
Copy OK
Track 9
Filename H:\0\..................00\post\Jenny Burton - Jenny Burton (1985) [2014 FTG]\09 - DANCING FOR MY LOVE (Extended Vocal Mix).wav
Pre-gap length 0:00:01.00
Peak level 98.8 %
Extraction speed 2.9 X
Track quality 100.0 %
Test CRC 5761CF66
Copy CRC 5761CF66
Accurately ripped (confidence 2) [00CF966E] (AR v2)
Copy OK
Track 10
Filename H:\0\..................00\post\Jenny Burton - Jenny Burton (1985) [2014 FTG]\10 - DANCING FOR MY LOVE (Dub Mix).wav
Pre-gap length 0:00:01.00
Peak level 98.1 %
Extraction speed 3.0 X
Track quality 100.0 %
Test CRC 843CA614
Copy CRC 843CA614
Accurately ripped (confidence 2) [E0CA1DC3] (AR v2)
Copy OK
Track 11
Filename H:\0\..................00\post\Jenny Burton - Jenny Burton (1985) [2014 FTG]\11 - BAD HABIT (7 Inch Version).wav
Pre-gap length 0:00:01.00
Peak level 99.4 %
Extraction speed 2.6 X
Track quality 99.9 %
Test CRC 889BB9E7
Copy CRC 889BB9E7
Accurately ripped (confidence 2) [788701F4] (AR v2)
Copy OK
All tracks accurately ripped
No errors occurred
End of status report
==== Log checksum 263DA181BCCA835997CF8E90B136FF21A0963C6A78B1917DE61AC22E375FE090 ====
 
Содержание индексной карты (.CUE)
REM GENRE Soul
REM DATE 1985
REM DISCID 950E160B
REM COMMENT "ExactAudioCopy v1.0b3"
PERFORMER "Jenny Burton"
TITLE "Jenny Burton (Expanded Edition)"
FILE "01 - Bad Habit.wav" WAVE
TRACK 01 AUDIO
TITLE "Bad Habit"
PERFORMER "Jenny Burton"
INDEX 01 00:00:00
TRACK 02 AUDIO
TITLE "Dancing For My Love"
PERFORMER "Jenny Burton"
INDEX 00 05:26:40
FILE "02 - Dancing For My Love.wav" WAVE
INDEX 01 00:00:00
TRACK 03 AUDIO
TITLE "Lets Gets Back To Love"
PERFORMER "Jenny Burton"
INDEX 00 06:19:15
FILE "03 - Lets Gets Back To Love.wav" WAVE
INDEX 01 00:00:00
TRACK 04 AUDIO
TITLE "Love Runs Deeper"
PERFORMER "Jenny Burton"
INDEX 00 04:51:03
FILE "04 - Love Runs Deeper.wav" WAVE
INDEX 01 00:00:00
TRACK 05 AUDIO
TITLE "If You Liet Me"
PERFORMER "Jenny Burton"
INDEX 00 04:52:35
FILE "05 - If You Liet Me.wav" WAVE
INDEX 01 00:00:00
TRACK 06 AUDIO
TITLE "Load It Up"
PERFORMER "Jenny Burton"
INDEX 00 05:04:57
FILE "06 - Load It Up.wav" WAVE
INDEX 01 00:00:00
TRACK 07 AUDIO
TITLE "Nobody Can Tell Me"
PERFORMER "Jenny Burton"
INDEX 00 06:08:04
FILE "07 - Nobody Can Tell Me.wav" WAVE
INDEX 01 00:00:00
TRACK 08 AUDIO
TITLE "Once In A Lifetime Love"
PERFORMER "Jenny Burton"
INDEX 00 05:18:20
FILE "08 - Once In A Lifetime Love.wav" WAVE
INDEX 01 00:00:00
TRACK 09 AUDIO
TITLE "Dancing For My Love (Extended Vocal Mix)"
PERFORMER "Jenny Burton"
INDEX 00 03:49:32
FILE "09 - Dancing For My Love (Extended Vocal Mix).wav" WAVE
INDEX 01 00:00:00
TRACK 10 AUDIO
TITLE "Dancing For My Love (Dub Mix)"
PERFORMER "Jenny Burton"
INDEX 00 07:11:56
FILE "10 - Dancing For My Love (Dub Mix).wav" WAVE
INDEX 01 00:00:00
TRACK 11 AUDIO
TITLE "Bad Habit (7 Inch Version)"
PERFORMER "Jenny Burton"
INDEX 00 06:51:38
FILE "11 - Bad Habit (7 Inch Version).wav" WAVE
INDEX 01 00:00:00
Приватный:
Нет (DHT включён)
Размер:
501.61 Мб (525,977,432 байт) » файлов: 21
Участники:
0 раздают, 0 качают (0 участников всего)
Внешние участники:
2 раздают, 1 качают (3 участников всего) [ Обновить ]
Есть вопросы - пишите личное сообщение пользователю M0p94ok.
06:10
45
Нет комментариев. Ваш будет первым!