Поиск

(Jazz-Funk) [CD] Mike Clark - Actual Proof - 2000, FLAC (tracks+.cue), lossless

(Jazz-Funk) [CD] Mike Clark - Actual Proof - 2000, FLAC (tracks+.cue), lossless
Треклист:
Mike Clark - Actual Proof
Жанр: Jazz-Funk
Носитель: CD
Страна-производитель диска (релиза): США
Год издания: 2000
Издатель (лейбл): PGI/Platform
Номер по каталогу: 1121-2
Аудиокодек: FLAC (*.flac)
Тип рипа: tracks+.cue
Битрейт аудио: lossless
Продолжительность: 71:14
Источник (релизер): MDMF (what)
Наличие сканов в содержимом раздачи: нет
Треклист:
01. Stingers (Levy) - 4:16
02. The Grinder (Levy) - 6:00
03. Aristide (Clark) - 7:50
04. The Viper (Clark) - 5:23
05. Waiting Around (Ouimette) - 6:28
06. Stuff (Davis) - 9:18
07. Attack of the 40 ft Woman (Ouimette) - 4:34
08. Cops and Robbers (Levy) - 7:19
09. 59th Street Station (Clark) - 6:25
10. Bacon Phat (Clark) - 7:13
11. The Famous Door (Clark) - 6:28
Состав:
Mike Clark - drums
Ted Trimble - acoustic bass, electric bass
Charlie Hunter - guitar
Tim Ouimette - trumpet, wind driver
Bennie Maupin - tenor saxophone, soprano saxophone, bass clarinet
Jed Levy - tenor saxophone
Kevin Burrell - congas (#2)
 
Лог создания рипа
Exact Audio Copy V0.99 prebeta 5 from 4. May 2009
EAC extraction logfile from 10. November 2010, 23:40
Mike Clark / Actual Proof
Used drive : 16X8 DVD DUAL Adapter: 1 ID: 1
Read mode : Secure
Utilize accurate stream : Yes
Defeat audio cache : Yes
Make use of C2 pointers : No
Read offset correction : 91
Overread into Lead-In and Lead-Out : No
Fill up missing offset samples with silence : Yes
Delete leading and trailing silent blocks : No
Null samples used in CRC calculations : Yes
Used interface : Native Win32 interface for Win NT & 2000
Gap handling : Appended to previous track
Used output format : User Defined Encoder
Selected bitrate : 320 kBit/s
Quality : High
Add ID3 tag : No
Command line compressor : C:\Program Files\Exact Audio Copy\Flac\flac.exe
Additional command line options : -V -8 -T "artist=%a" -T "title=%t" -T "album=%g" -T "date=%y" -T "tracknumber=%n" -T "genre=%m" %s
TOC of the extracted CD
Track | Start | Length | Start sector | End sector
---------------------------------------------------------
1 | 0:00.00 | 4:16.37 | 0 | 19236
2 | 4:16.37 | 5:59.38 | 19237 | 46199
3 | 10:16.00 | 7:49.62 | 46200 | 81436
4 | 18:05.62 | 5:22.65 | 81437 | 105651
5 | 23:28.52 | 6:28.23 | 105652 | 134774
6 | 29:57.00 | 9:18.00 | 134775 | 176624
7 | 39:15.00 | 4:34.30 | 176625 | 197204
8 | 43:49.30 | 7:18.38 | 197205 | 230092
9 | 51:07.68 | 6:25.03 | 230093 | 258970
10 | 57:32.71 | 7:13.30 | 258971 | 291475
11 | 64:46.26 | 6:28.28 | 291476 | 320603
Track 1
Filename C:\music\rips\Mike Clark - [2000] Actual Proof\01 Mike Clark- Stingers.wav
Pre-gap length 0:00:02.00
Peak level 96.2 %
Track quality 100.0 %
Test CRC B0F27537
Copy CRC B0F27537
Accurately ripped (confidence 2) [C7268EF4]
Copy OK
Track 2
Filename C:\music\rips\Mike Clark - [2000] Actual Proof\02 Mike Clark- The Grinder.wav
Pre-gap length 0:00:03.60
Peak level 84.8 %
Track quality 100.0 %
Test CRC 0F32A402
Copy CRC 0F32A402
Accurately ripped (confidence 2) [AE4B8168]
Copy OK
Track 3
Filename C:\music\rips\Mike Clark - [2000] Actual Proof\03 Mike Clark- Aristide.wav
Pre-gap length 0:00:04.42
Peak level 86.1 %
Track quality 100.0 %
Test CRC CC834F08
Copy CRC CC834F08
Accurately ripped (confidence 2) [A745E7A0]
Copy OK
Track 4
Filename C:\music\rips\Mike Clark - [2000] Actual Proof\04 Mike Clark- The Viper.wav
Pre-gap length 0:00:02.73
Peak level 86.1 %
Track quality 100.0 %
Test CRC 52B35DF4
Copy CRC 52B35DF4
Accurately ripped (confidence 2) [43D6F682]
Copy OK
Track 5
Filename C:\music\rips\Mike Clark - [2000] Actual Proof\05 Mike Clark- Waiting Around.wav
Pre-gap length 0:00:03.88
Peak level 100.0 %
Track quality 100.0 %
Test CRC F0E576BB
Copy CRC F0E576BB
Accurately ripped (confidence 2) [323EB553]
Copy OK
Track 6
Filename C:\music\rips\Mike Clark - [2000] Actual Proof\06 Mike Clark- Stuff.wav
Pre-gap length 0:00:02.45
Peak level 96.5 %
Track quality 99.9 %
Test CRC 4522C817
Copy CRC 4522C817
Track not present in AccurateRip database
Copy OK
Track 7
Filename C:\music\rips\Mike Clark - [2000] Actual Proof\07 Mike Clark- Attack of the 40 ft Woman.wav
Pre-gap length 0:00:00.81
Peak level 95.1 %
Track quality 100.0 %
Test CRC E69C6AF8
Copy CRC E69C6AF8
Accurately ripped (confidence 2) [A823AD0D]
Copy OK
Track 8
Filename C:\music\rips\Mike Clark - [2000] Actual Proof\08 Mike Clark- Cops and Robbers.wav
Pre-gap length 0:00:03.14
Peak level 96.8 %
Track quality 100.0 %
Test CRC A438FD0B
Copy CRC A438FD0B
Track not present in AccurateRip database
Copy OK
Track 9
Filename C:\music\rips\Mike Clark - [2000] Actual Proof\09 Mike Clark- 59th Street Station.wav
Pre-gap length 0:00:02.72
Peak level 78.8 %
Track quality 100.0 %
Test CRC 94B2E3BF
Copy CRC 94B2E3BF
Accurately ripped (confidence 2) [7F1B1CCA]
Copy OK
Track 10
Filename C:\music\rips\Mike Clark - [2000] Actual Proof\10 Mike Clark- Bacon Phat.wav
Pre-gap length 0:00:02.82
Peak level 98.1 %
Track quality 100.0 %
Test CRC E85AE9FB
Copy CRC E85AE9FB
Accurately ripped (confidence 2) [B3FC218C]
Copy OK
Track 11
Filename C:\music\rips\Mike Clark - [2000] Actual Proof\11 Mike Clark- The Famous Door.wav
Pre-gap length 0:00:00.65
Peak level 98.8 %
Track quality 100.0 %
Test CRC 0F0B5E21
Copy CRC 0F0B5E21
Accurately ripped (confidence 2) [515C1500]
Copy OK
9 track(s) accurately ripped
2 track(s) not present in the AccurateRip database
Some tracks could not be verified as accurate
No errors occurred
End of status report
 
Содержание индексной карты (.CUE)
REM GENRE Jazz
REM DATE 2000
REM DISCID AA10B20B
REM COMMENT "ExactAudioCopy v0.99pb5"
PERFORMER "Mike Clark"
TITLE "Actual Proof"
FILE "01 - Stingers.wav" WAVE
TRACK 01 AUDIO
TITLE "Stingers"
PERFORMER "Mike Clark"
INDEX 01 00:00:00
TRACK 02 AUDIO
TITLE "The Grinder"
PERFORMER "Mike Clark"
INDEX 00 04:12:67
FILE "02 - The Grinder.wav" WAVE
INDEX 01 00:00:00
TRACK 03 AUDIO
TITLE "Aristide"
PERFORMER "Mike Clark"
INDEX 00 05:55:06
FILE "03 - Aristide.wav" WAVE
INDEX 01 00:00:00
TRACK 04 AUDIO
TITLE "The Viper"
PERFORMER "Mike Clark"
INDEX 00 07:47:07
FILE "04 - The Viper.wav" WAVE
INDEX 01 00:00:00
TRACK 05 AUDIO
TITLE "Waiting Around"
PERFORMER "Mike Clark"
INDEX 00 05:18:74
FILE "05 - Waiting Around.wav" WAVE
INDEX 01 00:00:00
TRACK 06 AUDIO
TITLE "Stuff"
PERFORMER "Mike Clark"
INDEX 00 06:25:64
FILE "06 - Stuff.wav" WAVE
INDEX 01 00:00:00
TRACK 07 AUDIO
TITLE "Attack of the 40 ft Woman"
PERFORMER "Mike Clark"
INDEX 00 09:17:14
FILE "07 - Attack of the 40 ft Woman.wav" WAVE
INDEX 01 00:00:00
TRACK 08 AUDIO
TITLE "Cops and Robbers"
PERFORMER "Mike Clark"
INDEX 00 04:31:19
FILE "08 - Cops and Robbers.wav" WAVE
INDEX 01 00:00:00
TRACK 09 AUDIO
TITLE "59th Street Station"
PERFORMER "Mike Clark"
INDEX 00 07:15:59
FILE "09 - 59th Street Station.wav" WAVE
INDEX 01 00:00:00
TRACK 10 AUDIO
TITLE "Bacon Phat"
PERFORMER "Mike Clark"
INDEX 00 06:22:16
FILE "10 - Bacon Phat.wav" WAVE
INDEX 01 00:00:00
TRACK 11 AUDIO
TITLE "The Famous Door"
PERFORMER "Mike Clark"
INDEX 00 07:12:56
FILE "11 - The Famous Door.wav" WAVE
INDEX 01 00:00:00
 
Отчет CUETools
[CUETools log; Date: 22.05.2015 1:11:45; Version: 2.1.5]
[CTDB TOCID: rr5WMJdINbIWyf4cNtUH3bPrXxA-] found.
Track | CTDB Status
1 | (1/1) Accurately ripped
2 | (1/1) Accurately ripped
3 | (1/1) Accurately ripped
4 | (1/1) Accurately ripped
5 | (1/1) Accurately ripped
6 | (1/1) Accurately ripped
7 | (1/1) Accurately ripped
8 | (1/1) Accurately ripped
9 | (1/1) Accurately ripped
10 | (1/1) Accurately ripped
11 | (1/1) Accurately ripped
[AccurateRip ID: 001c6a83-00f9c0a3-aa10b20b] found.
Track [ CRC | V2 ] Status
01 [c7268ef4|e3a60f07] (3+0/3) Accurately ripped
02 [ae4b8168|7ef0f0fd] (3+0/3) Accurately ripped
03 [a745e7a0|968224e2] (3+0/3) Accurately ripped
04 [43d6f682|e410a6cd] (3+0/3) Accurately ripped
05 [323eb553|c0ce703f] (3+0/3) Accurately ripped
06 [4566987c|9de618c6] (2+0/2) Accurately ripped
07 [a823ad0d|11f3dc6b] (3+0/3) Accurately ripped
08 [3fd6c7e0|fb8dcb0e] (2+0/2) Accurately ripped
09 [7f1b1cca|0a2e19b7] (2+0/2) Accurately ripped
10 [b3fc218c|224171e5] (3+0/3) Accurately ripped
11 [515c1500|9699d1cb] (3+0/3) Accurately ripped
Track Peak [ CRC32 ] [W/O NULL] [ LOG ]
-- 100,0 [EC4B8EF6] [F935FE8F]
01 96,2 [B0F27537] [66EC9223] CRC32
02 84,8 [0F32A402] [DAAD8762] CRC32
03 86,1 [CC834F08] [233BA8E2] CRC32
04 86,1 [52B35DF4] [3FDDF733] CRC32
05 100,0 [F0E576BB] [7FA18FAF] CRC32
06 96,5 [4522C817] [E922E193] CRC32
07 95,1 [E69C6AF8] [4DE910BA] CRC32
08 96,8 [A438FD0B] [9F990222] CRC32
09 78,8 [94B2E3BF] [15E460D3] CRC32
10 98,1 [E85AE9FB] [CB314F50] CRC32
11 98,8 [0F0B5E21] [04E0D3FF] CRC32
 
Review by Paula Edelstein
Mike Clark, legendary drummer and former member of Herbie Hancock's band, The Headhunters delivers his signature sound on Actual Proof with funky, organic passion. Clark is joined by saxophonist Bennie Maupin, Jed Levy on tenor saxophone, Tim Ouimette on trumpet and flugelhorn, Ted Trimble on acoustic bass, guitarist Charlie Hunter, Kevin Burrell on percussion, on 11 tracks that feature rousing instrumentals and hot driving rhythms. Opening the set with the invigorating "Stingers," Clark illustrates his amazing range of drum mastery behind a soulful tenor saxophone solo by Jed Levy and the B string guitar wizardry of Charlie Hunter. The highlight of this great CD is "Aristide" with its great soprano saxophone showcase by Bennie Maupin and Clark's mighty workout that features his musical ideas of rhythm, composition, syncopation, technique and expression all in one great solo. This program transcends stylistic boundaries: Clark's as comfortable playing downbeat jazz as he is with organic funk and fusion. Actual Proof is an upbeat take on Clark's perceptive and illuminative drumming style and his thoughts on jazz drumming are clearly linked to his influential days with Herbie Hancock.
Приватный:
Нет (DHT включён)
Размер:
434.64 Мб (455,748,213 байт) » файлов: 22
Участники:
0 раздают, 0 качают (0 участников всего)
Внешние участники:
3 раздают, 1 качают (4 участников всего) [ Обновить ]
Есть вопросы - пишите личное сообщение пользователю M0p94ok.
06:09
30
Нет комментариев. Ваш будет первым!