Поиск

(Jazz-Funk) [CD] Mike Clark & Paul Jackson - The Funk Stops Here - 1992, FLAC (tracks+.cue), lossless

(Jazz-Funk) [CD] Mike Clark & Paul Jackson - The Funk Stops Here - 1992, FLAC (tracks+.cue), lossless
Треклист:
Mike Clark & Paul Jackson - The Funk Stops Here
Жанр: Jazz-Funk
Носитель: CD
Страна-производитель диска (релиза): Германия
Год издания: 1992
Издатель (лейбл): Tiptoe/Enja
Номер по каталогу: TIP-888811 2
Страна исполнителя (группы): США
Аудиокодек: FLAC (*.flac)
Тип рипа: tracks+.cue
Битрейт аудио: lossless
Продолжительность: 46:17
Источник (релизер): smacito (what)
Наличие сканов в содержимом раздачи: сетевые
Треклист:
01. Steady Freddy (5:40)
02. Four String Drive (4:24)
03. Spider Man (3:08)
04. Swamp Thing (8:47)
05. Hotel Domingo (3:44)
06. Jurasic Park (4:00)
07. Funk Is...Bill Doggett (3:55)
08. Pitt & the Pendulum (4:03)
09. Slinky (7:43)
10. Steady Freddy (Reprise) (0:53)
Состав:
Mike Clark - drums
Paul Jackson - electric bass, vocals (#5)
Kenny Garrett - saxophone
Jeff Pittson - keyboards
All compositions by Mike Clark, Paul Jackson, Jeff Pittson, Kenny Garrett, Jim Payne.
 
Лог создания рипа
Exact Audio Copy V1.0 beta 3 from 29. August 2011
EAC extraction logfile from 16. March 2013, 22:53
Mike Clark & Paul Jackson / The Funk Stops Here
Used drive : HL-DT-STDVDRAM GT30N Adapter: 0 ID: 1
Read mode : Secure
Utilize accurate stream : Yes
Defeat audio cache : Yes
Make use of C2 pointers : No
Read offset correction : 103
Overread into Lead-In and Lead-Out : No
Fill up missing offset samples with silence : Yes
Delete leading and trailing silent blocks : No
Null samples used in CRC calculations : Yes
Used interface : Native Win32 interface for Win NT & 2000
Gap handling : Appended to previous track
Used output format : User Defined Encoder
Selected bitrate : 1024 kBit/s
Quality : High
Add ID3 tag : No
Command line compressor : C:\Program Files (x86)\Exact Audio Copy\Flac\flac.exe
Additional command line options : -8 -V -T "ARTIST=%artist%" -T "TITLE=%title%" -T "ALBUM=%albumtitle%" -T "DATE=%year%" -T "TRACKNUMBER=%tracknr%" -T "GENRE=%genre%" -T "PERFORMER=%albuminterpret%" -T "COMPOSER=%composer%" %haslyrics%--tag-from-file=LYRICS="%lyricsfile%"%haslyrics% -T "ALBUMARTIST=%albumartist%" -T "DISCNUMBER=%cdnumber%" -T "TOTALDISCS=%totalcds%" -T "TOTALTRACKS=%numtracks%" -T "COMMENT=%comment%" %source% -o %dest%
TOC of the extracted CD
Track | Start | Length | Start sector | End sector
---------------------------------------------------------
1 | 0:00.32 | 5:40.10 | 32 | 25541
2 | 5:40.42 | 4:23.73 | 25542 | 45339
3 | 10:04.40 | 3:08.27 | 45340 | 59466
4 | 13:12.67 | 8:47.08 | 59467 | 98999
5 | 22:00.00 | 3:43.47 | 99000 | 115771
6 | 25:43.47 | 3:59.65 | 115772 | 133761
7 | 29:43.37 | 3:55.13 | 133762 | 151399
8 | 33:38.50 | 4:03.20 | 151400 | 169644
9 | 37:41.70 | 7:43.02 | 169645 | 204371
10 | 45:24.72 | 0:52.43 | 204372 | 208314
Track 1
Filename D:\My Documents\Dropbox\My Music\What.cd project\Mike Clark & Paul Jackson - 1992 - The Funk Stops Here [FLAC]\01 - Steady Freddy.wav
Pre-gap length 0:00:02.42
Peak level 94.9 %
Extraction speed 1.3 X
Track quality 100.0 %
Test CRC 63852EEF
Copy CRC 63852EEF
Accurately ripped (confidence 7) [1A1DFB35] (AR v1)
Copy OK
Track 2
Filename D:\My Documents\Dropbox\My Music\What.cd project\Mike Clark & Paul Jackson - 1992 - The Funk Stops Here [FLAC]\02 - Four String Drive.wav
Pre-gap length 0:00:01.02
Peak level 86.3 %
Extraction speed 1.4 X
Track quality 100.0 %
Test CRC 76088482
Copy CRC 76088482
Accurately ripped (confidence 7) [1D69A994] (AR v1)
Copy OK
Track 3
Filename D:\My Documents\Dropbox\My Music\What.cd project\Mike Clark & Paul Jackson - 1992 - The Funk Stops Here [FLAC]\03 - Spider Man.wav
Peak level 91.5 %
Extraction speed 1.5 X
Track quality 100.0 %
Test CRC 08CBEC54
Copy CRC 08CBEC54
Accurately ripped (confidence 7) [0AF2A326] (AR v1)
Copy OK
Track 4
Filename D:\My Documents\Dropbox\My Music\What.cd project\Mike Clark & Paul Jackson - 1992 - The Funk Stops Here [FLAC]\04 - Swamp Thing.wav
Pre-gap length 0:00:01.33
Peak level 74.7 %
Extraction speed 1.9 X
Track quality 100.0 %
Test CRC 08468CA4
Copy CRC 08468CA4
Accurately ripped (confidence 7) [89D98EEB] (AR v1)
Copy OK
Track 5
Filename D:\My Documents\Dropbox\My Music\What.cd project\Mike Clark & Paul Jackson - 1992 - The Funk Stops Here [FLAC]\05 - Hotel Domingo.wav
Pre-gap length 0:00:00.24
Peak level 93.8 %
Extraction speed 1.9 X
Track quality 100.0 %
Test CRC 25895686
Copy CRC 25895686
Accurately ripped (confidence 7) [7CD5D996] (AR v1)
Copy OK
Track 6
Filename D:\My Documents\Dropbox\My Music\What.cd project\Mike Clark & Paul Jackson - 1992 - The Funk Stops Here [FLAC]\06 - Jurasic Park.wav
Peak level 98.3 %
Extraction speed 2.0 X
Track quality 100.0 %
Test CRC 557D3913
Copy CRC 557D3913
Accurately ripped (confidence 7) [6E8C1849] (AR v1)
Copy OK
Track 7
Filename D:\My Documents\Dropbox\My Music\What.cd project\Mike Clark & Paul Jackson - 1992 - The Funk Stops Here [FLAC]\07 - Funk Is...Bill Doggett.wav
Peak level 100.0 %
Extraction speed 2.1 X
Track quality 100.0 %
Test CRC 6304C9F8
Copy CRC 6304C9F8
Accurately ripped (confidence 7) [7E892539] (AR v1)
Copy OK
Track 8
Filename D:\My Documents\Dropbox\My Music\What.cd project\Mike Clark & Paul Jackson - 1992 - The Funk Stops Here [FLAC]\08 - Pitt & The Pendulum.wav
Peak level 88.8 %
Extraction speed 2.2 X
Track quality 100.0 %
Test CRC F337E68E
Copy CRC F337E68E
Accurately ripped (confidence 7) [91058D43] (AR v1)
Copy OK
Track 9
Filename D:\My Documents\Dropbox\My Music\What.cd project\Mike Clark & Paul Jackson - 1992 - The Funk Stops Here [FLAC]\09 - Slinky.wav
Peak level 69.1 %
Extraction speed 2.5 X
Track quality 100.0 %
Test CRC A826FBA5
Copy CRC A826FBA5
Accurately ripped (confidence 7) [451F08FB] (AR v1)
Copy OK
Track 10
Filename D:\My Documents\Dropbox\My Music\What.cd project\Mike Clark & Paul Jackson - 1992 - The Funk Stops Here [FLAC]\10 - Steady Freddy (reprise).wav
Pre-gap length 0:00:00.16
Peak level 56.8 %
Extraction speed 1.6 X
Track quality 100.0 %
Test CRC F1C5B1EF
Copy CRC F1C5B1EF
Accurately ripped (confidence 7) [C7F95E91] (AR v1)
Copy OK
All tracks accurately ripped
No errors occurred
End of status report
==== Log checksum E0449AD373AC72F827FF7ABA75B15C6000ECB7326610B7C668C3EDF880DF01E1 ====
 
Содержание индексной карты (.CUE)
REM GENRE Jazz
REM DATE 1992
REM DISCID 790AD90A
REM COMMENT "ExactAudioCopy v1.0b3"
PERFORMER "Mike Clark & Paul Jackson"
TITLE "The Funk Stops Here"
FILE "01 - Steady Freddy.wav" WAVE
TRACK 01 AUDIO
TITLE "Steady Freddy"
PERFORMER "Mike Clark & Paul Jackson"
PREGAP 00:00:32
INDEX 01 00:00:00
TRACK 02 AUDIO
TITLE "Four String Drive"
PERFORMER "Mike Clark & Paul Jackson"
INDEX 00 05:39:08
FILE "02 - Four String Drive.wav" WAVE
INDEX 01 00:00:00
FILE "03 - Spider Man.wav" WAVE
TRACK 03 AUDIO
TITLE "Spider Man"
PERFORMER "Mike Clark & Paul Jackson"
INDEX 01 00:00:00
TRACK 04 AUDIO
TITLE "Swamp Thing"
PERFORMER "Mike Clark & Paul Jackson"
INDEX 00 03:07:02
FILE "04 - Swamp Thing.wav" WAVE
INDEX 01 00:00:00
TRACK 05 AUDIO
TITLE "Hotel Domingo"
PERFORMER "Mike Clark & Paul Jackson"
INDEX 00 08:46:65
FILE "05 - Hotel Domingo.wav" WAVE
INDEX 01 00:00:00
FILE "06 - Jurasic Park.wav" WAVE
TRACK 06 AUDIO
TITLE "Jurasic Park"
PERFORMER "Mike Clark & Paul Jackson"
INDEX 01 00:00:00
FILE "07 - Funk Is...Bill Doggett.wav" WAVE
TRACK 07 AUDIO
TITLE "Funk Is...Bill Doggett"
PERFORMER "Mike Clark & Paul Jackson"
INDEX 01 00:00:00
FILE "08 - Pitt & the Pendulum.wav" WAVE
TRACK 08 AUDIO
TITLE "Pitt & the Pendulum"
PERFORMER "Mike Clark & Paul Jackson"
INDEX 01 00:00:00
FILE "09 - Slinky.wav" WAVE
TRACK 09 AUDIO
TITLE "Slinky"
PERFORMER "Mike Clark & Paul Jackson"
INDEX 01 00:00:00
TRACK 10 AUDIO
TITLE "Steady Freddy (Reprise)"
PERFORMER "Mike Clark & Paul Jackson"
INDEX 00 07:42:65
FILE "10 - Steady Freddy (Reprise).wav" WAVE
INDEX 01 00:00:00
 
Отчет CUETools
[CUETools log; Date: 22.05.2015 0:44:10; Version: 2.1.5]
Pregap length 00:00:32.
[CTDB TOCID: 1IxcdYJLxTi8wEtVd348WIW4uOQ-] found.
Track | CTDB Status
1 | (2/2) Accurately ripped
2 | (2/2) Accurately ripped
3 | (2/2) Accurately ripped
4 | (2/2) Accurately ripped
5 | (2/2) Accurately ripped
6 | (2/2) Accurately ripped
7 | (2/2) Accurately ripped
8 | (2/2) Accurately ripped
9 | (2/2) Accurately ripped
10 | (2/2) Accurately ripped
[AccurateRip ID: 001280e7-0092da60-790ad90a] found.
Track [ CRC | V2 ] Status
01 [1a1dfb35|329cc743] (07+06/13) Accurately ripped
02 [1d69a994|2a7d3bdc] (07+06/13) Accurately ripped
03 [0af2a326|7296c650] (07+06/13) Accurately ripped
04 [89d98eeb|95d0498b] (07+06/13) Accurately ripped
05 [7cd5d996|95b5c5df] (07+06/13) Accurately ripped
06 [6e8c1849|b399f6ae] (07+06/13) Accurately ripped
07 [7e892539|24a630d1] (07+06/13) Accurately ripped
08 [91058d43|fae9f1ab] (07+06/13) Accurately ripped
09 [451f08fb|12b913d5] (07+06/13) Accurately ripped
10 [c7f95e91|98443131] (07+06/13) Accurately ripped
Track Peak [ CRC32 ] [W/O NULL] [ LOG ]
-- 100,0 [34A1369A] [98FA23A8]
01 94,9 [63852EEF] [93FB9881] CRC32
02 86,3 [76088482] [724B333E] CRC32
03 91,5 [08CBEC54] [48CF6265] CRC32
04 74,7 [08468CA4] [201FDBB9] CRC32
05 93,8 [25895686] [9F2A853F] CRC32
06 98,3 [557D3913] [E64C540B] CRC32
07 100,0 [6304C9F8] [DAD21832] CRC32
08 88,8 [F337E68E] [A4098530] CRC32
09 69,1 [A826FBA5] [714171E9] CRC32
10 56,8 [F1C5B1EF] [F09AAFF4] CRC32
 
Review by Ron Wynn
Alto saxophonist Kenny Garrett is the star attraction, although this is nominally drummer Mike Clark's album. Clark does have a strong, extensive solo on the title track and plays with purpose and direction throughout, but it's Garrett who emerges as the date's finest player.
Приватный:
Нет (DHT включён)
Размер:
250.60 Мб (262,770,464 байт) » файлов: 18
Участники:
0 раздают, 0 качают (0 участников всего)
Внешние участники:
5 раздают, 2 качают (7 участников всего) [ Обновить ]
Есть вопросы - пишите личное сообщение пользователю M0p94ok.
06:08
59
Нет комментариев. Ваш будет первым!