Поиск

(Soul, R&B) [CD] Ray Charles - Seven Classic Albums Plus Bonus Singles, Vol. 2 (4 CD) - 2013, FLAC (tracks+.cue), lossless

(Soul, R&B) [CD] Ray Charles - Seven Classic Albums Plus Bonus Singles, Vol. 2 (4 CD) - 2013, FLAC (tracks+.cue), lossless
Треклист:
Ray Charles - Seven Classic Albums Plus Bonus Singles, Vol. 2 (4 CD)

Жанр: Soul, R&B
Носитель: CD
Страна-производитель диска (релиза): UK
Год издания: 2013
Издатель (лейбл): Real Gone Jazz
Номер по каталогу: RGJCD349
Аудиокодек: FLAC (*.flac)
Тип рипа: tracks+.cue
Битрейт аудио: lossless
Продолжительность: 04:46:44
Источник (релизер): ruskaval
Наличие сканов в содержимом раздачи: да 
 
 
CD 1
Продолжительность: 01:04:33
Треклист:
01. (Night Time Is) The Right Time (4:05)
02. What'd I Say (4:22)
03. Yes, Indeed (2:36)
04. The Spirit I feel (4:22)
05. Frenisi (5:03)
06. Drown In My Own Tears (6:24)
07. Tell The Truth (3:36)
08. Early In The Mornin' (2:46)
09. Hard Times (No One Knows Better Than I) (2:54)
10. The Midnight Hour (2:59)
11. (Night Time Is) The Right Time (3:22)
12. Feelin' Sad (2:49)
13. Ray's Blues (2:53)
14. I'm Movin' On (2:11)
15. I Believe To My Soul (3:00)
16. Nobody Cares (2:38)
17. Mr. Charles' Blues (2:46)
18. Some Day Baby (2:59)
19. I Wonder Who (2:46)
 
 
Лог создания рипа
Exact Audio Copy V1.0 beta 3 from 29. August 2011
EAC extraction logfile from 22. April 2015, 14:17
Ray Charles / Seven Classic Albums Plus Bonus Singles.Vol2 CD1
Used drive : ASUS SDRW-08D2S-U Adapter: 1 ID: 0
Read mode : Secure
Utilize accurate stream : Yes
Defeat audio cache : Yes
Make use of C2 pointers : No
Read offset correction : 6
Overread into Lead-In and Lead-Out : No
Fill up missing offset samples with silence : Yes
Delete leading and trailing silent blocks : No
Null samples used in CRC calculations : Yes
Used interface : Native Win32 interface for Win NT & 2000
Gap handling : Appended to previous track
Used output format : User Defined Encoder
Selected bitrate : 128 kBit/s
Quality : High
Add ID3 tag : No
Command line compressor : C:\Program Files (x86)\Exact Audio Copy\Flac\flac.exe
Additional command line options : -8 -V -T "ARTIST=%artist%" -T "TITLE=%title%" -T "ALBUM=%albumtitle%" -T "DATE=%year%" -T "TRACKNUMBER=%tracknr%" -T "TOTALTRACKS=%numtracks%" -T "GENRE=%genre%" -T "ALBUMARTIST=%albumartist%" -T "ALBUM ARTIST=%albumartist%" -T "COMMENT=EAC Secure Mode, Test & Copy, AccurateRip, FLAC -8" %source%
TOC of the extracted CD
Track | Start | Length | Start sector | End sector
---------------------------------------------------------
1 | 0:00.00 | 4:05.00 | 0 | 18374
2 | 4:05.00 | 4:21.71 | 18375 | 38020
3 | 8:26.71 | 2:36.36 | 38021 | 49756
4 | 11:03.32 | 4:21.41 | 49757 | 69372
5 | 15:24.73 | 5:03.30 | 69373 | 92127
6 | 20:28.28 | 6:23.66 | 92128 | 120918
7 | 26:52.19 | 3:36.08 | 120919 | 137126
8 | 30:28.27 | 2:46.12 | 137127 | 149588
9 | 33:14.39 | 2:54.31 | 149589 | 162669
10 | 36:08.70 | 2:59.30 | 162670 | 176124
11 | 39:08.25 | 3:22.37 | 176125 | 191311
12 | 42:30.62 | 2:48.54 | 191312 | 203965
13 | 45:19.41 | 2:53.22 | 203966 | 216962
14 | 48:12.63 | 2:11.07 | 216963 | 226794
15 | 50:23.70 | 2:59.47 | 226795 | 240266
16 | 53:23.42 | 2:38.10 | 240267 | 252126
17 | 56:01.52 | 2:46.15 | 252127 | 264591
18 | 58:47.67 | 2:58.46 | 264592 | 277987
19 | 61:46.38 | 2:46.23 | 277988 | 290460
Track 1
Filename D:\Subir\01 - (Night Time Is) The Right Time.wav
Pre-gap length 0:00:02.00
Peak level 85.4 %
Extraction speed 2.2 X
Track quality 99.9 %
Test CRC 21F40234
Copy CRC 21F40234
Accurately ripped (confidence 9) [D5BBB803] (AR v2)
Copy OK
Track 2
Filename D:\Subir\02 - What'd I Say.wav
Peak level 88.9 %
Extraction speed 2.5 X
Track quality 99.9 %
Test CRC FBF6F3D7
Copy CRC FBF6F3D7
Accurately ripped (confidence 9) [A2D8E8BF] (AR v2)
Copy OK
Track 3
Filename D:\Subir\03 - Yes, Indeed.wav
Peak level 100.0 %
Extraction speed 3.0 X
Track quality 100.0 %
Test CRC 9E02AEF0
Copy CRC 9E02AEF0
Accurately ripped (confidence 9) [4BC47B66] (AR v2)
Copy OK
Track 4
Filename D:\Subir\04 - The Spirit I feel.wav
Peak level 95.9 %
Extraction speed 3.5 X
Track quality 100.0 %
Test CRC C8C172EA
Copy CRC C8C172EA
Accurately ripped (confidence 9) [EF915D26] (AR v2)
Copy OK
Track 5
Filename D:\Subir\05 - Frenisi.wav
Peak level 73.8 %
Extraction speed 3.8 X
Track quality 100.0 %
Test CRC DCFA1A1A
Copy CRC DCFA1A1A
Accurately ripped (confidence 9) [74247B70] (AR v2)
Copy OK
Track 6
Filename D:\Subir\06 - Drown In My Own Tears.wav
Peak level 77.2 %
Extraction speed 4.2 X
Track quality 100.0 %
Test CRC 8170BE93
Copy CRC 8170BE93
Accurately ripped (confidence 9) [A20E7F4B] (AR v2)
Copy OK
Track 7
Filename D:\Subir\07 - Tell The Truth.wav
Peak level 86.1 %
Extraction speed 3.2 X
Track quality 99.9 %
Test CRC B65D1D66
Copy CRC B65D1D66
Accurately ripped (confidence 9) [7AC41A34] (AR v2)
Copy OK
Track 8
Filename D:\Subir\08 - Early In The Mornin'.wav
Peak level 99.2 %
Extraction speed 4.1 X
Track quality 100.0 %
Test CRC 572B7BAB
Copy CRC 572B7BAB
Accurately ripped (confidence 7) [1B718633] (AR v2)
Copy OK
Track 9
Filename D:\Subir\09 - Hard Times (No One Knows Better Than I).wav
Peak level 92.5 %
Extraction speed 4.2 X
Track quality 100.0 %
Test CRC E91BA6D4
Copy CRC E91BA6D4
Accurately ripped (confidence 7) [1D57F4B7] (AR v2)
Copy OK
Track 10
Filename D:\Subir\10 - The Midnight Hour.wav
Peak level 86.2 %
Extraction speed 4.3 X
Track quality 100.0 %
Test CRC B3BC0EB1
Copy CRC B3BC0EB1
Accurately ripped (confidence 7) [AFEDB68A] (AR v2)
Copy OK
Track 11
Filename D:\Subir\11 - (Night Time Is) The Right Time.wav
Peak level 96.3 %
Extraction speed 3.5 X
Track quality 99.9 %
Test CRC F7619420
Copy CRC F7619420
Accurately ripped (confidence 7) [F3513120] (AR v2)
Copy OK
Track 12
Filename D:\Subir\12 - Feelin' Sad.wav
Peak level 91.3 %
Extraction speed 4.5 X
Track quality 100.0 %
Test CRC EE72B634
Copy CRC EE72B634
Accurately ripped (confidence 7) [0E9AD186] (AR v2)
Copy OK
Track 13
Filename D:\Subir\13 - Ray's Blues.wav
Peak level 72.8 %
Extraction speed 3.5 X
Track quality 99.9 %
Test CRC E99F7EAA
Copy CRC E99F7EAA
Accurately ripped (confidence 7) [15343B43] (AR v2)
Copy OK
Track 14
Filename D:\Subir\14 - I'm Movin' On.wav
Peak level 98.4 %
Extraction speed 4.4 X
Track quality 100.0 %
Test CRC 3D301A3B
Copy CRC 3D301A3B
Accurately ripped (confidence 7) [0B4E5E52] (AR v2)
Copy OK
Track 15
Filename D:\Subir\15 - I Believe To My Soul.wav
Peak level 86.7 %
Extraction speed 3.6 X
Track quality 99.9 %
Test CRC F7F592C5
Copy CRC F7F592C5
Accurately ripped (confidence 7) [12CA1575] (AR v2)
Copy OK
Track 16
Filename D:\Subir\16 - Nobody Cares.wav
Peak level 98.9 %
Extraction speed 4.8 X
Track quality 100.0 %
Test CRC 01FC090E
Copy CRC 01FC090E
Accurately ripped (confidence 7) [B61BE71B] (AR v2)
Copy OK
Track 17
Filename D:\Subir\17 - Mr. Charles' Blues.wav
Peak level 94.8 %
Extraction speed 4.9 X
Track quality 100.0 %
Test CRC 4A5055D3
Copy CRC 4A5055D3
Accurately ripped (confidence 7) [1D0DA1AF] (AR v2)
Copy OK
Track 18
Filename D:\Subir\18 - Some Day Baby.wav
Peak level 89.9 %
Extraction speed 3.8 X
Track quality 99.9 %
Test CRC AA7A399B
Copy CRC AA7A399B
Accurately ripped (confidence 7) [B198093E] (AR v2)
Copy OK
Track 19
Filename D:\Subir\19 - I Wonder Who.wav
Peak level 84.8 %
Extraction speed 5.1 X
Track quality 100.0 %
Test CRC B45B87B8
Copy CRC B45B87B8
Accurately ripped (confidence 7) [2A255F7C] (AR v2)
Copy OK
All tracks accurately ripped
No errors occurred
End of status report
---- CUETools DB Plugin V2.1.3
[CTDB TOCID: cbIxdKyazH8jKo9_Dp3JqrPerVo-] found, Submit result: cbIxdKyazH8jKo9_Dp3JqrPerVo- has been confirmed
[db6104ec] (4/4) Accurately ripped
==== Log checksum 2DB2174816598BB371CA348FE9C82700D564225EE39A22F0BE2B10AF6C1E6380 ====
 
Содержание индексной карты (.CUE)
REM GENRE R&B
REM DATE 2013
REM DISCID 030F2013
REM COMMENT "ExactAudioCopy v1.0b3"
PERFORMER "Ray Charles"
TITLE "Seven Classic Albums Plus Bonus Singles. Vol. 2 CD1"
FILE "01 - (Night Time Is) The Right Time.wav" WAVE
TRACK 01 AUDIO
TITLE "(Night Time Is) The Right Time"
PERFORMER "Ray Charles"
INDEX 01 00:00:00
FILE "02 - What'd I Say.wav" WAVE
TRACK 02 AUDIO
TITLE "What'd I Say"
PERFORMER "Ray Charles"
INDEX 01 00:00:00
FILE "03 - Yes, Indeed.wav" WAVE
TRACK 03 AUDIO
TITLE "Yes, Indeed"
PERFORMER "Ray Charles"
INDEX 01 00:00:00
FILE "04 - The Spirit I feel.wav" WAVE
TRACK 04 AUDIO
TITLE "The Spirit I feel"
PERFORMER "Ray Charles"
INDEX 01 00:00:00
FILE "05 - Frenisi.wav" WAVE
TRACK 05 AUDIO
TITLE "Frenisi"
PERFORMER "Ray Charles"
INDEX 01 00:00:00
FILE "06 - Drown In My Own Tears.wav" WAVE
TRACK 06 AUDIO
TITLE "Drown In My Own Tears"
PERFORMER "Ray Charles"
INDEX 01 00:00:00
FILE "07 - Tell The Truth.wav" WAVE
TRACK 07 AUDIO
TITLE "Tell The Truth"
PERFORMER "Ray Charles"
INDEX 01 00:00:00
FILE "08 - Early In The Mornin'.wav" WAVE
TRACK 08 AUDIO
TITLE "Early In The Mornin'"
PERFORMER "Ray Charles"
INDEX 01 00:00:00
FILE "09 - Hard Times (No One Knows Better Than I).wav" WAVE
TRACK 09 AUDIO
TITLE "Hard Times (No One Knows Better Than I)"
PERFORMER "Ray Charles"
INDEX 01 00:00:00
FILE "10 - The Midnight Hour.wav" WAVE
TRACK 10 AUDIO
TITLE "The Midnight Hour"
PERFORMER "Ray Charles"
INDEX 01 00:00:00
FILE "11 - (Night Time Is) The Right Time.wav" WAVE
TRACK 11 AUDIO
TITLE "(Night Time Is) The Right Time"
PERFORMER "Ray Charles"
INDEX 01 00:00:00
FILE "12 - Feelin' Sad.wav" WAVE
TRACK 12 AUDIO
TITLE "Feelin' Sad"
PERFORMER "Ray Charles"
INDEX 01 00:00:00
FILE "13 - Ray's Blues.wav" WAVE
TRACK 13 AUDIO
TITLE "Ray's Blues"
PERFORMER "Ray Charles"
INDEX 01 00:00:00
FILE "14 - I'm Movin' On.wav" WAVE
TRACK 14 AUDIO
TITLE "I'm Movin' On"
PERFORMER "Ray Charles"
INDEX 01 00:00:00
FILE "15 - I Believe To My Soul.wav" WAVE
TRACK 15 AUDIO
TITLE "I Believe To My Soul"
PERFORMER "Ray Charles"
INDEX 01 00:00:00
FILE "16 - Nobody Cares.wav" WAVE
TRACK 16 AUDIO
TITLE "Nobody Cares"
PERFORMER "Ray Charles"
INDEX 01 00:00:00
FILE "17 - Mr. Charles' Blues.wav" WAVE
TRACK 17 AUDIO
TITLE "Mr. Charles' Blues"
PERFORMER "Ray Charles"
INDEX 01 00:00:00
FILE "18 - Some Day Baby.wav" WAVE
TRACK 18 AUDIO
TITLE "Some Day Baby"
PERFORMER "Ray Charles"
INDEX 01 00:00:00
FILE "19 - I Wonder Who.wav" WAVE
TRACK 19 AUDIO
TITLE "I Wonder Who"
PERFORMER "Ray Charles"
INDEX 01 00:00:00
 
CD 2
Продолжительность: 01:17:02
Треклист:
01. Hallelujah, I Love Her So (5:26)
02. Blue Genius (6:35)
03. X-Ray Blues (8:09)
04. Soul Meeting (6:01)
05. Love On My Mind (3:43)
06. Bag's of Blues (8:49)
07. The Genius After Hours (5:22)
08. Ain't Misbehavin' (5:39)
09. Dawn Ray (5:01)
10. Joy Ride (4:36)
11. Hornful Soul (5:27)
12. The Man I Love (4:25)
13. Charlesville (4:54)
14. Music, Music, Music (2:54)
 
 
Лог создания рипа
Exact Audio Copy V1.0 beta 3 from 29. August 2011
EAC extraction logfile from 22. April 2015, 15:21
Ray Charles / Seven Classic Albums Plus Bonus Singles.Vol2 CD2
Used drive : ASUS SDRW-08D2S-U Adapter: 1 ID: 0
Read mode : Secure
Utilize accurate stream : Yes
Defeat audio cache : Yes
Make use of C2 pointers : No
Read offset correction : 6
Overread into Lead-In and Lead-Out : No
Fill up missing offset samples with silence : Yes
Delete leading and trailing silent blocks : No
Null samples used in CRC calculations : Yes
Used interface : Native Win32 interface for Win NT & 2000
Gap handling : Appended to previous track
Used output format : User Defined Encoder
Selected bitrate : 128 kBit/s
Quality : High
Add ID3 tag : No
Command line compressor : C:\Program Files (x86)\Exact Audio Copy\Flac\flac.exe
Additional command line options : -8 -V -T "ARTIST=%artist%" -T "TITLE=%title%" -T "ALBUM=%albumtitle%" -T "DATE=%year%" -T "TRACKNUMBER=%tracknr%" -T "TOTALTRACKS=%numtracks%" -T "GENRE=%genre%" -T "ALBUMARTIST=%albumartist%" -T "ALBUM ARTIST=%albumartist%" -T "COMMENT=EAC Secure Mode, Test & Copy, AccurateRip, FLAC -8" %source%
TOC of the extracted CD
Track | Start | Length | Start sector | End sector
---------------------------------------------------------
1 | 0:00.00 | 5:26.29 | 0 | 24478
2 | 5:26.29 | 6:35.17 | 24479 | 54120
3 | 12:01.46 | 8:08.69 | 54121 | 90789
4 | 20:10.40 | 6:00.52 | 90790 | 117841
5 | 26:11.17 | 3:42.59 | 117842 | 134550
6 | 29:54.01 | 8:48.52 | 134551 | 174202
7 | 38:42.53 | 5:22.29 | 174203 | 198381
8 | 44:05.07 | 5:39.01 | 198382 | 223807
9 | 49:44.08 | 5:01.22 | 223808 | 246404
10 | 54:45.30 | 4:36.36 | 246405 | 267140
11 | 59:21.66 | 5:26.72 | 267141 | 291662
12 | 64:48.63 | 4:25.29 | 291663 | 311566
13 | 69:14.17 | 4:54.25 | 311567 | 333641
14 | 74:08.42 | 2:53.58 | 333642 | 346674
Track 1
Filename D:\Subir\01 - Hallelujah, I Love Her So.wav
Pre-gap length 0:00:02.00
Peak level 99.6 %
Extraction speed 2.9 X
Track quality 100.0 %
Test CRC 35DB9504
Copy CRC 35DB9504
Accurately ripped (confidence 11) [DDA57B2D] (AR v2)
Copy OK
Track 2
Filename D:\Subir\02 - Blue Genius.wav
Peak level 91.1 %
Extraction speed 3.5 X
Track quality 100.0 %
Test CRC B916112B
Copy CRC B916112B
Accurately ripped (confidence 11) [41FEC418] (AR v2)
Copy OK
Track 3
Filename D:\Subir\03 - X-Ray Blues.wav
Peak level 97.9 %
Extraction speed 4.0 X
Track quality 100.0 %
Test CRC 81051C10
Copy CRC 81051C10
Accurately ripped (confidence 11) [A2B41697] (AR v2)
Copy OK
Track 4
Filename D:\Subir\04 - Soul Meeting.wav
Peak level 96.5 %
Extraction speed 4.3 X
Track quality 100.0 %
Test CRC BAB99FCB
Copy CRC BAB99FCB
Accurately ripped (confidence 11) [F1967DC0] (AR v2)
Copy OK
Track 5
Filename D:\Subir\05 - Love On My Mind.wav
Peak level 84.1 %
Extraction speed 3.4 X
Track quality 99.9 %
Test CRC D68954E5
Copy CRC D68954E5
Accurately ripped (confidence 11) [E08A55A3] (AR v2)
Copy OK
Track 6
Filename D:\Subir\06 - Bag's of Blues.wav
Peak level 70.7 %
Extraction speed 4.9 X
Track quality 100.0 %
Test CRC B892CFD4
Copy CRC B892CFD4
Accurately ripped (confidence 11) [A1A8028E] (AR v2)
Copy OK
Track 7
Filename D:\Subir\07 - The Genius After Hours.wav
Peak level 92.6 %
Extraction speed 4.2 X
Track quality 99.9 %
Test CRC 8E45FEF2
Copy CRC 8E45FEF2
Accurately ripped (confidence 9) [156BF6D4] (AR v2)
Copy OK
Track 8
Filename D:\Subir\08 - Ain't Misbehavin'.wav
Peak level 88.5 %
Extraction speed 5.2 X
Track quality 100.0 %
Test CRC 79DB2AA6
Copy CRC 79DB2AA6
Accurately ripped (confidence 9) [5702452A] (AR v2)
Copy OK
Track 9
Filename D:\Subir\09 - Dawn Ray.wav
Peak level 85.5 %
Extraction speed 5.4 X
Track quality 100.0 %
Test CRC D6D24F9A
Copy CRC D6D24F9A
Accurately ripped (confidence 9) [FF3CF82A] (AR v2)
Copy OK
Track 10
Filename D:\Subir\10 - Joy Ride.wav
Peak level 89.9 %
Extraction speed 5.5 X
Track quality 100.0 %
Test CRC 5121B9D4
Copy CRC 5121B9D4
Accurately ripped (confidence 9) [4E8BD661] (AR v2)
Copy OK
Track 11
Filename D:\Subir\11 - Hornful Soul.wav
Peak level 95.0 %
Extraction speed 5.7 X
Track quality 100.0 %
Test CRC FC9311BB
Copy CRC FC9311BB
Accurately ripped (confidence 9) [894CA1B6] (AR v2)
Copy OK
Track 12
Filename D:\Subir\12 - The Man I Love.wav
Peak level 100.0 %
Extraction speed 5.7 X
Track quality 100.0 %
Test CRC BE264E04
Copy CRC BE264E04
Accurately ripped (confidence 9) [70287CF3] (AR v2)
Copy OK
Track 13
Filename D:\Subir\13 - Charlesville.wav
Peak level 98.0 %
Extraction speed 5.9 X
Track quality 100.0 %
Test CRC B545210E
Copy CRC B545210E
Accurately ripped (confidence 9) [3B379165] (AR v2)
Copy OK
Track 14
Filename D:\Subir\14 - Music, Music, Music.wav
Peak level 98.0 %
Extraction speed 5.6 X
Track quality 100.0 %
Test CRC FF54C6B6
Copy CRC FF54C6B6
Accurately ripped (confidence 9) [49E06D36] (AR v2)
Copy OK
All tracks accurately ripped
No errors occurred
End of status report
---- CUETools DB Plugin V2.1.3
[CTDB TOCID: 2k6JDgmty7Q6ai7geOLOd55f65M-] found, Submit result: 2k6JDgmty7Q6ai7geOLOd55f65M- has been confirmed
[017214a3] (4/5) Accurately ripped
[3dd96590] (1/5) No match
==== Log checksum 14F4A56943865D3AEC4214CF27D23A4E5ADE7746AA942DF8AC5BD4E2292ADFCD ====
 
Содержание индексной карты (.CUE)
REM GENRE Soul
REM DATE 2013
REM DISCID D5120E0E
REM COMMENT "ExactAudioCopy v1.0b3"
PERFORMER "Ray Charles"
TITLE "Seven Classic Albums Plus Bonus Singles. Vol. 2 CD2"
FILE "01 - Hallelujah, I Love Her So.wav" WAVE
TRACK 01 AUDIO
TITLE "Hallelujah, I Love Her So"
PERFORMER "Ray Charles"
INDEX 01 00:00:00
FILE "02 - Blue Genius.wav" WAVE
TRACK 02 AUDIO
TITLE "Blue Genius"
PERFORMER "Ray Charles"
INDEX 01 00:00:00
FILE "03 - X-Ray Blues.wav" WAVE
TRACK 03 AUDIO
TITLE "X-Ray Blues"
PERFORMER "Ray Charles"
INDEX 01 00:00:00
FILE "04 - Soul Meeting.wav" WAVE
TRACK 04 AUDIO
TITLE "Soul Meeting"
PERFORMER "Ray Charles"
INDEX 01 00:00:00
FILE "05 - Love On My Mind.wav" WAVE
TRACK 05 AUDIO
TITLE "Love On My Mind"
PERFORMER "Ray Charles"
INDEX 01 00:00:00
FILE "06 - Bag's of Blues.wav" WAVE
TRACK 06 AUDIO
TITLE "Bag's of Blues"
PERFORMER "Ray Charles"
INDEX 01 00:00:00
FILE "07 - The Genius After Hours.wav" WAVE
TRACK 07 AUDIO
TITLE "The Genius After Hours"
PERFORMER "Ray Charles"
INDEX 01 00:00:00
FILE "08 - Ain't Misbehavin'.wav" WAVE
TRACK 08 AUDIO
TITLE "Ain't Misbehavin'"
PERFORMER "Ray Charles"
INDEX 01 00:00:00
FILE "09 - Dawn Ray.wav" WAVE
TRACK 09 AUDIO
TITLE "Dawn Ray"
PERFORMER "Ray Charles"
INDEX 01 00:00:00
FILE "10 - Joy Ride.wav" WAVE
TRACK 10 AUDIO
TITLE "Joy Ride"
PERFORMER "Ray Charles"
INDEX 01 00:00:00
FILE "11 - Hornful Soul.wav" WAVE
TRACK 11 AUDIO
TITLE "Hornful Soul"
PERFORMER "Ray Charles"
INDEX 01 00:00:00
FILE "12 - The Man I Love.wav" WAVE
TRACK 12 AUDIO
TITLE "The Man I Love"
PERFORMER "Ray Charles"
INDEX 01 00:00:00
FILE "13 - Charlesville.wav" WAVE
TRACK 13 AUDIO
TITLE "Charlesville"
PERFORMER "Ray Charles"
INDEX 01 00:00:00
FILE "14 - Music, Music, Music.wav" WAVE
TRACK 14 AUDIO
TITLE "Music, Music, Music"
PERFORMER "Ray Charles"
INDEX 01 00:00:00
 
CD 3
Продолжительность: 01:14:19
Треклист:
01. Hard Hearted Hannah (3:15)
02. Nancy (With The Laughing Face) (3:03)
03. Margie (2:44)
04. Ruby (3:52)
05. Rosetta (2:30)
06. Stella By Starlight (3:48)
07. Cherry (3:35)
08. Josephine (2:11)
09. Candy (4:07)
10. Marie (2:19)
11. Diane (3:48)
12. Sweet Georgia Brown (2:30)
13. From The Heart (3:33)
14. I've Got News For You (4:30)
15. Moanin' (3:16)
16. Let's Go (2:41)
17. One Mint Julep (3:03)
18. I'm Gonna Move To The Outskirts Of Town (3:40)
19. Stompin' Room Only (3:43)
20. Mister C. (4:28)
21. Strike Up The Band (2:34)
22. Birth Of The Blues (5:08)
 
 
Лог создания рипа
Exact Audio Copy V1.0 beta 3 from 29. August 2011
EAC extraction logfile from 22. April 2015, 16:08
Ray Charles / Seven Classic Albums Plus Bonus Singles.Vol2 CD3
Used drive : ASUS SDRW-08D2S-U Adapter: 1 ID: 0
Read mode : Secure
Utilize accurate stream : Yes
Defeat audio cache : Yes
Make use of C2 pointers : No
Read offset correction : 6
Overread into Lead-In and Lead-Out : No
Fill up missing offset samples with silence : Yes
Delete leading and trailing silent blocks : No
Null samples used in CRC calculations : Yes
Used interface : Native Win32 interface for Win NT & 2000
Gap handling : Appended to previous track
Used output format : User Defined Encoder
Selected bitrate : 128 kBit/s
Quality : High
Add ID3 tag : No
Command line compressor : C:\Program Files (x86)\Exact Audio Copy\Flac\flac.exe
Additional command line options : -8 -V -T "ARTIST=%artist%" -T "TITLE=%title%" -T "ALBUM=%albumtitle%" -T "DATE=%year%" -T "TRACKNUMBER=%tracknr%" -T "TOTALTRACKS=%numtracks%" -T "GENRE=%genre%" -T "ALBUMARTIST=%albumartist%" -T "ALBUM ARTIST=%albumartist%" -T "COMMENT=EAC Secure Mode, Test & Copy, AccurateRip, FLAC -8" %source%
TOC of the extracted CD
Track | Start | Length | Start sector | End sector
---------------------------------------------------------
1 | 0:00.00 | 3:15.34 | 0 | 14658
2 | 3:15.34 | 3:03.24 | 14659 | 28407
3 | 6:18.58 | 2:44.02 | 28408 | 40709
4 | 9:02.60 | 3:52.06 | 40710 | 58115
5 | 12:54.66 | 2:29.48 | 58116 | 69338
6 | 15:24.39 | 3:48.16 | 69339 | 86454
7 | 19:12.55 | 3:35.14 | 86455 | 102593
8 | 22:47.69 | 2:11.11 | 102594 | 112429
9 | 24:59.05 | 4:06.74 | 112430 | 130953
10 | 29:06.04 | 2:18.53 | 130954 | 141356
11 | 31:24.57 | 3:48.25 | 141357 | 158481
12 | 35:13.07 | 2:29.70 | 158482 | 169726
13 | 37:43.02 | 3:33.08 | 169727 | 185709
14 | 41:16.10 | 4:30.13 | 185710 | 205972
15 | 45:46.23 | 3:15.42 | 205973 | 220639
16 | 49:01.65 | 2:40.40 | 220640 | 232679
17 | 51:42.30 | 3:03.25 | 232680 | 246429
18 | 54:45.55 | 3:40.04 | 246430 | 262933
19 | 58:25.59 | 3:43.31 | 262934 | 279689
20 | 62:09.15 | 4:28.37 | 279690 | 299826
21 | 66:37.52 | 2:33.52 | 299827 | 311353
22 | 69:11.29 | 5:07.72 | 311354 | 334450
Track 1
Filename D:\Subir\01 - Hard Hearted Hannah.wav
Pre-gap length 0:00:02.00
Peak level 98.0 %
Extraction speed 2.8 X
Track quality 100.0 %
Test CRC A96ED2F7
Copy CRC A96ED2F7
Accurately ripped (confidence 6) [E61D07FF] (AR v2)
Copy OK
Track 2
Filename D:\Subir\02 - Nancy (With The Laughing Face).wav
Peak level 99.4 %
Extraction speed 3.0 X
Track quality 100.0 %
Test CRC 02D760A3
Copy CRC 02D760A3
Accurately ripped (confidence 6) [B8CE070A] (AR v2)
Copy OK
Track 3
Filename D:\Subir\03 - Margie.wav
Peak level 98.0 %
Extraction speed 2.4 X
Track quality 99.9 %
Test CRC E46343FF
Copy CRC E46343FF
Accurately ripped (confidence 6) [45A0D7ED] (AR v2)
Copy OK
Track 4
Filename D:\Subir\04 - Ruby.wav
Peak level 95.8 %
Extraction speed 2.8 X
Track quality 99.9 %
Test CRC 5CF9FDC2
Copy CRC 5CF9FDC2
Accurately ripped (confidence 6) [3F203B7A] (AR v2)
Copy OK
Track 5
Filename D:\Subir\05 - Rosetta.wav
Peak level 98.0 %
Extraction speed 3.4 X
Track quality 100.0 %
Test CRC 6E36C7F5
Copy CRC 6E36C7F5
Accurately ripped (confidence 6) [428AF35E] (AR v2)
Copy OK
Track 6
Filename D:\Subir\06 - Stella By Starlight.wav
Peak level 92.3 %
Extraction speed 3.8 X
Track quality 100.0 %
Test CRC 0E6C407E
Copy CRC 0E6C407E
Accurately ripped (confidence 6) [BA60005D] (AR v2)
Copy OK
Track 7
Filename D:\Subir\07 - Cherry.wav
Peak level 92.1 %
Extraction speed 4.0 X
Track quality 100.0 %
Test CRC 6B081822
Copy CRC 6B081822
Accurately ripped (confidence 6) [ACB2D2FF] (AR v2)
Copy OK
Track 8
Filename D:\Subir\08 - Josephine.wav
Peak level 98.0 %
Extraction speed 2.7 X
Track quality 99.9 %
Test CRC 3F760F06
Copy CRC 3F760F06
Accurately ripped (confidence 6) [5CBF6252] (AR v2)
Copy OK
Track 9
Filename D:\Subir\09 - Candy.wav
Peak level 98.0 %
Extraction speed 3.5 X
Track quality 99.9 %
Test CRC B91EA73C
Copy CRC B91EA73C
Accurately ripped (confidence 6) [33B9C2AD] (AR v2)
Copy OK
Track 10
Filename D:\Subir\10 - Marie.wav
Peak level 98.0 %
Extraction speed 4.0 X
Track quality 100.0 %
Test CRC 5C1DD403
Copy CRC 5C1DD403
Accurately ripped (confidence 6) [CABDFA5B] (AR v2)
Copy OK
Track 11
Filename D:\Subir\11 - Diane.wav
Peak level 86.3 %
Extraction speed 4.5 X
Track quality 100.0 %
Test CRC 27F8A5DC
Copy CRC 27F8A5DC
Accurately ripped (confidence 6) [46EED994] (AR v2)
Copy OK
Track 12
Filename D:\Subir\12 - Sweet Georgia Brown.wav
Peak level 98.0 %
Extraction speed 4.3 X
Track quality 100.0 %
Test CRC B8DB1885
Copy CRC B8DB1885
Accurately ripped (confidence 6) [E3092E93] (AR v2)
Copy OK
Track 13
Filename D:\Subir\13 - From The Heart.wav
Peak level 82.7 %
Extraction speed 3.7 X
Track quality 99.9 %
Test CRC 0D701C39
Copy CRC 0D701C39
Accurately ripped (confidence 5) [206586F5] (AR v2)
Copy OK
Track 14
Filename D:\Subir\14 - I've Got News For You.wav
Peak level 86.4 %
Extraction speed 5.1 X
Track quality 100.0 %
Test CRC 3852FA44
Copy CRC 3852FA44
Accurately ripped (confidence 5) [ADEAD2B4] (AR v2)
Copy OK
Track 15
Filename D:\Subir\15 - Moanin'.wav
Peak level 84.1 %
Extraction speed 3.8 X
Track quality 99.9 %
Test CRC 3DEAE8CB
Copy CRC 3DEAE8CB
Accurately ripped (confidence 5) [1AE2C878] (AR v2)
Copy OK
Track 16
Filename D:\Subir\16 - Let's Go.wav
Peak level 85.9 %
Extraction speed 4.9 X
Track quality 100.0 %
Test CRC 09A75965
Copy CRC 09A75965
Accurately ripped (confidence 5) [E799FAFF] (AR v2)
Copy OK
Track 17
Filename D:\Subir\17 - One Mint Julep.wav
Peak level 85.0 %
Extraction speed 5.1 X
Track quality 100.0 %
Test CRC 7E184B09
Copy CRC 7E184B09
Accurately ripped (confidence 5) [31276926] (AR v2)
Copy OK
Track 18
Filename D:\Subir\18 - I'm Gonna Move To The Outskirts Of Town.wav
Peak level 85.9 %
Extraction speed 5.3 X
Track quality 100.0 %
Test CRC 077F2460
Copy CRC 077F2460
Accurately ripped (confidence 5) [8958AFB9] (AR v2)
Copy OK
Track 19
Filename D:\Subir\19 - Stompin' Room Only.wav
Peak level 84.3 %
Extraction speed 4.3 X
Track quality 99.9 %
Test CRC 7A172487
Copy CRC 7A172487
Accurately ripped (confidence 5) [100FA227] (AR v2)
Copy OK
Track 20
Filename D:\Subir\20 - Mister C..wav
Peak level 84.5 %
Extraction speed 5.8 X
Track quality 100.0 %
Test CRC 5DC97894
Copy CRC 5DC97894
Accurately ripped (confidence 5) [6E227848] (AR v2)
Copy OK
Track 21
Filename D:\Subir\21 - Strike Up The Band.wav
Peak level 85.0 %
Extraction speed 3.9 X
Track quality 99.9 %
Test CRC DFB2A95A
Copy CRC DFB2A95A
Accurately ripped (confidence 5) [99F83001] (AR v2)
Copy OK
Track 22
Filename D:\Subir\22 - Birth Of The Blues.wav
Peak level 84.7 %
Extraction speed 6.1 X
Track quality 100.0 %
Test CRC 628ADF96
Copy CRC 628ADF96
Accurately ripped (confidence 5) [14CB6322] (AR v2)
Copy OK
All tracks accurately ripped
No errors occurred
End of status report
---- CUETools DB Plugin V2.1.3
[CTDB TOCID: vuktDB5xEeusvtGBhq7GYujqVAo-] found, Submit result: vuktDB5xEeusvtGBhq7GYujqVAo- has been confirmed
[e72c624e] (2/2) Accurately ripped
==== Log checksum 615DCD9C6D3B1635CF8CC0FA840B5FE8382620831A7AFD3DB8F0B551A9EE06D3 ====
 
Содержание индексной карты (.CUE)
REM GENRE Jazz
REM DATE 2013
REM DISCID 59116B16
REM COMMENT "ExactAudioCopy v1.0b3"
PERFORMER "Ray Charles"
TITLE "Seven Classic Albums Plus Bonus Singles. Vol. 2 CD3"
FILE "01 - Hard Hearted Hannah.wav" WAVE
TRACK 01 AUDIO
TITLE "Hard Hearted Hannah"
PERFORMER "Ray Charles"
INDEX 01 00:00:00
FILE "02 - Nancy (With The Laughing Face).wav" WAVE
TRACK 02 AUDIO
TITLE "Nancy (With The Laughing Face)"
PERFORMER "Ray Charles"
INDEX 01 00:00:00
FILE "03 - Margie.wav" WAVE
TRACK 03 AUDIO
TITLE "Margie"
PERFORMER "Ray Charles"
INDEX 01 00:00:00
FILE "04 - Ruby.wav" WAVE
TRACK 04 AUDIO
TITLE "Ruby"
PERFORMER "Ray Charles"
INDEX 01 00:00:00
FILE "05 - Rosetta.wav" WAVE
TRACK 05 AUDIO
TITLE "Rosetta"
PERFORMER "Ray Charles"
INDEX 01 00:00:00
FILE "06 - Stella By Starlight.wav" WAVE
TRACK 06 AUDIO
TITLE "Stella By Starlight"
PERFORMER "Ray Charles"
INDEX 01 00:00:00
FILE "07 - Cherry.wav" WAVE
TRACK 07 AUDIO
TITLE "Cherry"
PERFORMER "Ray Charles"
INDEX 01 00:00:00
FILE "08 - Josephine.wav" WAVE
TRACK 08 AUDIO
TITLE "Josephine"
PERFORMER "Ray Charles"
INDEX 01 00:00:00
FILE "09 - Candy.wav" WAVE
TRACK 09 AUDIO
TITLE "Candy"
PERFORMER "Ray Charles"
INDEX 01 00:00:00
FILE "10 - Marie.wav" WAVE
TRACK 10 AUDIO
TITLE "Marie"
PERFORMER "Ray Charles"
INDEX 01 00:00:00
FILE "11 - Diane.wav" WAVE
TRACK 11 AUDIO
TITLE "Diane"
PERFORMER "Ray Charles"
INDEX 01 00:00:00
FILE "12 - Sweet Georgia Brown.wav" WAVE
TRACK 12 AUDIO
TITLE "Sweet Georgia Brown"
PERFORMER "Ray Charles"
INDEX 01 00:00:00
FILE "13 - From The Heart.wav" WAVE
TRACK 13 AUDIO
TITLE "From The Heart"
PERFORMER "Ray Charles"
INDEX 01 00:00:00
FILE "14 - I've Got News For You.wav" WAVE
TRACK 14 AUDIO
TITLE "I've Got News For You"
PERFORMER "Ray Charles"
INDEX 01 00:00:00
FILE "15 - Moanin'.wav" WAVE
TRACK 15 AUDIO
TITLE "Moanin'"
PERFORMER "Ray Charles"
INDEX 01 00:00:00
FILE "16 - Let's Go.wav" WAVE
TRACK 16 AUDIO
TITLE "Let's Go"
PERFORMER "Ray Charles"
INDEX 01 00:00:00
FILE "17 - One Mint Julep.wav" WAVE
TRACK 17 AUDIO
TITLE "One Mint Julep"
PERFORMER "Ray Charles"
INDEX 01 00:00:00
FILE "18 - I'm Gonna Move To The Outskirts Of Town.wav" WAVE
TRACK 18 AUDIO
TITLE "I'm Gonna Move To The Outskirts Of Town"
PERFORMER "Ray Charles"
INDEX 01 00:00:00
FILE "19 - Stompin' Room Only.wav" WAVE
TRACK 19 AUDIO
TITLE "Stompin' Room Only"
PERFORMER "Ray Charles"
INDEX 01 00:00:00
FILE "20 - Mister C..wav" WAVE
TRACK 20 AUDIO
TITLE "Mister C."
PERFORMER "Ray Charles"
INDEX 01 00:00:00
FILE "21 - Strike Up The Band.wav" WAVE
TRACK 21 AUDIO
TITLE "Strike Up The Band"
PERFORMER "Ray Charles"
INDEX 01 00:00:00
FILE "22 - Birth Of The Blues.wav" WAVE
TRACK 22 AUDIO
TITLE "Birth Of The Blues"
PERFORMER "Ray Charles"
INDEX 01 00:00:00
 
CD 4
Продолжительность: 01:10:49
Треклист:
01. Ev'ry Time We Say Goodbye (4:37)
02. You And I (3:23)
03. Intro: Goodbye / We'll Be Together Again (3:15)
04. People Will Say We're In Love (2:48)
05. Cocktails For Two (3:12)
06. Side By Side (2:20)
07. Baby, It's Cold Outside (4:07)
08. Together (1:32)
09. For All We Know (3:41)
10. Takes Two To Tango (3:20)
11. Alone Together (4:43)
12. Just You, Just Me (1:57)
13. My Baby! (I Love Her, Yes I Do) (3:02)
14. Who You Gonna Love (2:02)
15. Sticks And Stones (2:14)
16. Worried Life Blues (3:07)
17. Georgia On My Mind (3:37)
18. Carry Me Back To Old Virginny (2:01)
19. Them That Got (2:51)
20. I Wonder (2:34)
21. Hit The Road Jack (2:01)
22. The Danger Zone (2:23)
23. Unchain My Heart (2:50)
24. But On The Other Hand Baby (3:13)
 
 
Лог создания рипа
Exact Audio Copy V1.0 beta 3 from 29. August 2011
EAC extraction logfile from 22. April 2015, 16:59
Ray Charles / Seven Classic Albums Plus Bonus Singles.Vol2 CD4
Used drive : ASUS SDRW-08D2S-U Adapter: 1 ID: 0
Read mode : Secure
Utilize accurate stream : Yes
Defeat audio cache : Yes
Make use of C2 pointers : No
Read offset correction : 6
Overread into Lead-In and Lead-Out : No
Fill up missing offset samples with silence : Yes
Delete leading and trailing silent blocks : No
Null samples used in CRC calculations : Yes
Used interface : Native Win32 interface for Win NT & 2000
Gap handling : Appended to previous track
Used output format : User Defined Encoder
Selected bitrate : 128 kBit/s
Quality : High
Add ID3 tag : No
Command line compressor : C:\Program Files (x86)\Exact Audio Copy\Flac\flac.exe
Additional command line options : -8 -V -T "ARTIST=%artist%" -T "TITLE=%title%" -T "ALBUM=%albumtitle%" -T "DATE=%year%" -T "TRACKNUMBER=%tracknr%" -T "TOTALTRACKS=%numtracks%" -T "GENRE=%genre%" -T "ALBUMARTIST=%albumartist%" -T "ALBUM ARTIST=%albumartist%" -T "COMMENT=EAC Secure Mode, Test & Copy, AccurateRip, FLAC -8" %source%
TOC of the extracted CD
Track | Start | Length | Start sector | End sector
---------------------------------------------------------
1 | 0:00.00 | 4:36.74 | 0 | 20773
2 | 4:36.74 | 3:23.11 | 20774 | 36009
3 | 8:00.10 | 3:15.37 | 36010 | 50671
4 | 11:15.47 | 2:48.15 | 50672 | 63286
5 | 14:03.62 | 3:11.63 | 63287 | 77674
6 | 17:15.50 | 2:19.62 | 77675 | 88161
7 | 19:35.37 | 4:07.35 | 88162 | 106721
8 | 23:42.72 | 1:31.44 | 106722 | 113590
9 | 25:14.41 | 3:40.51 | 113591 | 130141
10 | 28:55.17 | 3:19.61 | 130142 | 145127
11 | 32:15.03 | 4:42.45 | 145128 | 166322
12 | 36:57.48 | 1:56.49 | 166323 | 175071
13 | 38:54.22 | 3:01.71 | 175072 | 188717
14 | 41:56.18 | 2:02.07 | 188718 | 197874
15 | 43:58.25 | 2:14.37 | 197875 | 207961
16 | 46:12.62 | 3:07.14 | 207962 | 222000
17 | 49:20.01 | 3:37.22 | 222001 | 238297
18 | 52:57.23 | 2:01.23 | 238298 | 247395
19 | 54:58.46 | 2:50.71 | 247396 | 260216
20 | 57:49.42 | 2:34.00 | 260217 | 271766
21 | 60:23.42 | 2:00.40 | 271767 | 280806
22 | 62:24.07 | 2:22.64 | 280807 | 291520
23 | 64:46.71 | 2:49.40 | 291521 | 304235
24 | 67:36.36 | 3:12.53 | 304236 | 318688
Track 1
Filename D:\Subir\01 - Ev'ry Time We Say Goodbye.wav
Pre-gap length 0:00:02.00
Peak level 100.0 %
Extraction speed 2.7 X
Track quality 100.0 %
Test CRC E4D69BD5
Copy CRC E4D69BD5
Accurately ripped (confidence 6) [74DBA8FA] (AR v2)
Copy OK
Track 2
Filename D:\Subir\02 - You And I.wav
Peak level 98.0 %
Extraction speed 2.4 X
Track quality 99.9 %
Test CRC 0B3D3C34
Copy CRC 0B3D3C34
Accurately ripped (confidence 6) [DAB15256] (AR v2)
Copy OK
Track 3
Filename D:\Subir\03 - Intro. Goodbye,We'll Be Together Again.wav
Peak level 78.5 %
Extraction speed 3.1 X
Track quality 100.0 %
Test CRC 9051FF29
Copy CRC 9051FF29
Accurately ripped (confidence 6) [FDD0DE06] (AR v2)
Copy OK
Track 4
Filename D:\Subir\04 - People Will Say We're In Love.wav
Peak level 100.0 %
Extraction speed 3.2 X
Track quality 100.0 %
Test CRC B119CC3F
Copy CRC B119CC3F
Accurately ripped (confidence 6) [A056D11C] (AR v2)
Copy OK
Track 5
Filename D:\Subir\05 - Cocktails For Two.wav
Peak level 100.0 %
Extraction speed 3.5 X
Track quality 100.0 %
Test CRC AC1166C1
Copy CRC AC1166C1
Accurately ripped (confidence 6) [3368F1BF] (AR v2)
Copy OK
Track 6
Filename D:\Subir\06 - Side By Side.wav
Peak level 98.0 %
Extraction speed 3.4 X
Track quality 100.0 %
Test CRC FF735BA5
Copy CRC FF735BA5
Accurately ripped (confidence 6) [A897BF73] (AR v2)
Copy OK
Track 7
Filename D:\Subir\07 - Baby, It's Cold Outside.wav
Peak level 98.0 %
Extraction speed 3.9 X
Track quality 100.0 %
Test CRC 9E895754
Copy CRC 9E895754
Accurately ripped (confidence 6) [9DF2EA21] (AR v2)
Copy OK
Track 8
Filename D:\Subir\08 - Together.wav
Peak level 98.0 %
Extraction speed 3.3 X
Track quality 100.0 %
Test CRC B4D638EA
Copy CRC B4D638EA
Accurately ripped (confidence 6) [9107FC48] (AR v2)
Copy OK
Track 9
Filename D:\Subir\09 - For All We Know.wav
Peak level 77.9 %
Extraction speed 4.1 X
Track quality 100.0 %
Test CRC 9CEE306C
Copy CRC 9CEE306C
Accurately ripped (confidence 6) [64D5EC25] (AR v2)
Copy OK
Track 10
Filename D:\Subir\10 - Takes Two To Tango.wav
Peak level 100.0 %
Extraction speed 3.3 X
Track quality 99.9 %
Test CRC 51A101F7
Copy CRC 51A101F7
Accurately ripped (confidence 6) [02D7019C] (AR v2)
Copy OK
Track 11
Filename D:\Subir\11 - Alone Together.wav
Peak level 83.7 %
Extraction speed 4.6 X
Track quality 100.0 %
Test CRC 5231623B
Copy CRC 5231623B
Accurately ripped (confidence 6) [63682A2E] (AR v2)
Copy OK
Track 12
Filename D:\Subir\12 - Just You, Just Me.wav
Peak level 98.6 %
Extraction speed 4.0 X
Track quality 100.0 %
Test CRC A3BD9597
Copy CRC A3BD9597
Accurately ripped (confidence 6) [090DA236] (AR v2)
Copy OK
Track 13
Filename D:\Subir\13 - My Baby! (I Love Her, Yes I Do).wav
Peak level 89.5 %
Extraction speed 3.4 X
Track quality 99.9 %
Test CRC 455F8CEA
Copy CRC 455F8CEA
Accurately ripped (confidence 6) [A166BDAD] (AR v2)
Copy OK
Track 14
Filename D:\Subir\14 - Who You Gonna Love.wav
Peak level 97.2 %
Extraction speed 4.3 X
Track quality 100.0 %
Test CRC A64F9294
Copy CRC A64F9294
Accurately ripped (confidence 6) [6D808B85] (AR v2)
Copy OK
Track 15
Filename D:\Subir\15 - Sticks And Stones.wav
Peak level 97.9 %
Extraction speed 4.4 X
Track quality 100.0 %
Test CRC 323DB85B
Copy CRC 323DB85B
Accurately ripped (confidence 6) [A07A096B] (AR v2)
Copy OK
Track 16
Filename D:\Subir\16 - Worried Life Blues.wav
Peak level 97.7 %
Extraction speed 4.8 X
Track quality 100.0 %
Test CRC 4D5611CA
Copy CRC 4D5611CA
Accurately ripped (confidence 6) [A7C43FB8] (AR v2)
Copy OK
Track 17
Filename D:\Subir\17 - Georgia On My Mind.wav
Peak level 96.3 %
Extraction speed 5.0 X
Track quality 100.0 %
Test CRC 652520DC
Copy CRC 652520DC
Accurately ripped (confidence 6) [1A93F98A] (AR v2)
Copy OK
Track 18
Filename D:\Subir\18 - Carry Me Back To Old Virginny.wav
Peak level 96.8 %
Extraction speed 4.5 X
Track quality 100.0 %
Test CRC 7DBA1532
Copy CRC 7DBA1532
Accurately ripped (confidence 6) [8868DC42] (AR v2)
Copy OK
Track 19
Filename D:\Subir\19 - Them That Got.wav
Peak level 98.0 %
Extraction speed 3.7 X
Track quality 99.9 %
Test CRC D931307B
Copy CRC D931307B
Accurately ripped (confidence 6) [6559E345] (AR v2)
Copy OK
Track 20
Filename D:\Subir\20 - I Wonder.wav
Peak level 96.6 %
Extraction speed 3.6 X
Track quality 99.9 %
Test CRC 2EBFFFF8
Copy CRC 2EBFFFF8
Accurately ripped (confidence 6) [380215B0] (AR v2)
Copy OK
Track 21
Filename D:\Subir\21 - Hit The Road Jack.wav
Peak level 96.3 %
Extraction speed 4.6 X
Track quality 100.0 %
Test CRC 9555B17A
Copy CRC 9555B17A
Accurately ripped (confidence 6) [4B163BAB] (AR v2)
Copy OK
Track 22
Filename D:\Subir\22 - The Danger Zone.wav
Peak level 96.7 %
Extraction speed 5.0 X
Track quality 100.0 %
Test CRC 0B221E29
Copy CRC 0B221E29
Accurately ripped (confidence 6) [53608F20] (AR v2)
Copy OK
Track 23
Filename D:\Subir\23 - Unchain My Heart.wav
Peak level 93.3 %
Extraction speed 5.2 X
Track quality 100.0 %
Test CRC E620C7E3
Copy CRC E620C7E3
Accurately ripped (confidence 6) [1F28FB08] (AR v2)
Copy OK
Track 24
Filename D:\Subir\24 - But On The Other Hand Baby.wav
Peak level 96.3 %
Extraction speed 5.5 X
Track quality 100.0 %
Test CRC 0D0944E5
Copy CRC 0D0944E5
Accurately ripped (confidence 6) [F39B05D9] (AR v2)
Copy OK
All tracks accurately ripped
No errors occurred
End of status report
---- CUETools DB Plugin V2.1.3
[CTDB TOCID: PAjmL5HRLWNqFZ0KDoEcYj7UtVc-] found, Submit result: PAjmL5HRLWNqFZ0KDoEcYj7UtVc- has been confirmed
[4a02291e] (4/4) Accurately ripped
==== Log checksum 3771637A7C4DAC69F1F1E42D543A31AAB9056869E99E099D66429C2266A5938E ====
 
Содержание индексной карты (.CUE)
REM GENRE R&B
REM DATE 2013
REM DISCID 78109918
REM COMMENT "ExactAudioCopy v1.0b3"
PERFORMER "Ray Charles"
TITLE "Seven Classic Albums Plus Bonus Singles. Vol. 2 CD4"
FILE "01 - Ev'ry Time We Say Goodbye.wav" WAVE
TRACK 01 AUDIO
TITLE "Ev'ry Time We Say Goodbye"
PERFORMER "Ray Charles"
INDEX 01 00:00:00
FILE "02 - You And I.wav" WAVE
TRACK 02 AUDIO
TITLE "You And I"
PERFORMER "Ray Charles"
INDEX 01 00:00:00
FILE "03 - Intro. Goodbye,We'll Be Together Again.wav" WAVE
TRACK 03 AUDIO
TITLE "Intro: Goodbye / We'll Be Together Again"
PERFORMER "Ray Charles"
INDEX 01 00:00:00
FILE "04 - People Will Say We're In Love.wav" WAVE
TRACK 04 AUDIO
TITLE "People Will Say We're In Love"
PERFORMER "Ray Charles"
INDEX 01 00:00:00
FILE "05 - Cocktails For Two.wav" WAVE
TRACK 05 AUDIO
TITLE "Cocktails For Two"
PERFORMER "Ray Charles"
INDEX 01 00:00:00
FILE "06 - Side By Side.wav" WAVE
TRACK 06 AUDIO
TITLE "Side By Side"
PERFORMER "Ray Charles"
INDEX 01 00:00:00
FILE "07 - Baby, It's Cold Outside.wav" WAVE
TRACK 07 AUDIO
TITLE "Baby, It's Cold Outside"
PERFORMER "Ray Charles"
INDEX 01 00:00:00
FILE "08 - Together.wav" WAVE
TRACK 08 AUDIO
TITLE "Together"
PERFORMER "Ray Charles"
INDEX 01 00:00:00
FILE "09 - For All We Know.wav" WAVE
TRACK 09 AUDIO
TITLE "For All We Know"
PERFORMER "Ray Charles"
INDEX 01 00:00:00
FILE "10 - Takes Two To Tango.wav" WAVE
TRACK 10 AUDIO
TITLE "Takes Two To Tango"
PERFORMER "Ray Charles"
INDEX 01 00:00:00
FILE "11 - Alone Together.wav" WAVE
TRACK 11 AUDIO
TITLE "Alone Together"
PERFORMER "Ray Charles"
INDEX 01 00:00:00
FILE "12 - Just You, Just Me.wav" WAVE
TRACK 12 AUDIO
TITLE "Just You, Just Me"
PERFORMER "Ray Charles"
INDEX 01 00:00:00
FILE "13 - My Baby! (I Love Her, Yes I Do).wav" WAVE
TRACK 13 AUDIO
TITLE "My Baby! (I Love Her, Yes I Do)"
PERFORMER "Ray Charles"
INDEX 01 00:00:00
FILE "14 - Who You Gonna Love.wav" WAVE
TRACK 14 AUDIO
TITLE "Who You Gonna Love"
PERFORMER "Ray Charles"
INDEX 01 00:00:00
FILE "15 - Sticks And Stones.wav" WAVE
TRACK 15 AUDIO
TITLE "Sticks And Stones"
PERFORMER "Ray Charles"
INDEX 01 00:00:00
FILE "16 - Worried Life Blues.wav" WAVE
TRACK 16 AUDIO
TITLE "Worried Life Blues"
PERFORMER "Ray Charles"
INDEX 01 00:00:00
FILE "17 - Georgia On My Mind.wav" WAVE
TRACK 17 AUDIO
TITLE "Georgia On My Mind"
PERFORMER "Ray Charles"
INDEX 01 00:00:00
FILE "18 - Carry Me Back To Old Virginny.wav" WAVE
TRACK 18 AUDIO
TITLE "Carry Me Back To Old Virginny"
PERFORMER "Ray Charles"
INDEX 01 00:00:00
FILE "19 - Them That Got.wav" WAVE
TRACK 19 AUDIO
TITLE "Them That Got"
PERFORMER "Ray Charles"
INDEX 01 00:00:00
FILE "20 - I Wonder.wav" WAVE
TRACK 20 AUDIO
TITLE "I Wonder"
PERFORMER "Ray Charles"
INDEX 01 00:00:00
FILE "21 - Hit The Road Jack.wav" WAVE
TRACK 21 AUDIO
TITLE "Hit The Road Jack"
PERFORMER "Ray Charles"
INDEX 01 00:00:00
FILE "22 - The Danger Zone.wav" WAVE
TRACK 22 AUDIO
TITLE "The Danger Zone"
PERFORMER "Ray Charles"
INDEX 01 00:00:00
FILE "23 - Unchain My Heart.wav" WAVE
TRACK 23 AUDIO
TITLE "Unchain My Heart"
PERFORMER "Ray Charles"
INDEX 01 00:00:00
FILE "24 - But On The Other Hand Baby.wav" WAVE
TRACK 24 AUDIO
TITLE "But On The Other Hand Baby"
PERFORMER "Ray Charles"
INDEX 01 00:00:00
Приватный:
Нет (DHT включён)
Размер:
1.33 Гб (1,431,830,950 байт) » файлов: 112
Участники:
0 раздают, 0 качают (0 участников всего)
Внешние участники:
3 раздают, 1 качают (4 участников всего) [ Обновить ]
No seeders - write a personal message to user M0p94ok. Нет сидеров - пишите личное сообщение пользователю M0p94ok.
06:08
73
Нет комментариев. Ваш будет первым!