Поиск

(Jazz-Funk) [CD] Incognito - Tribes, Vibes And Scribes (Japan PHCR-35) - 1992, FLAC (tracks+.cue), lossless

(Jazz-Funk) [CD] Incognito - Tribes, Vibes And Scribes (Japan PHCR-35) - 1992, FLAC (tracks+.cue), lossless
Треклист:
Incognito / Tribes, Vibes And Scribes (Japan PHCR-35)
Жанр: Jazz-Funk
Носитель: CD
Страна-производитель диска (релиза): Japan
Год издания: 1992
Издатель (лейбл): Talkin' Loud
Номер по каталогу: PHCR-35
Аудиокодек: FLAC (*.flac)
Тип рипа: tracks+.cue
Битрейт аудио: lossless
Продолжительность: 62'37"
Источник (релизер): own rip
Наличие сканов в содержимом раздачи: нет
Треклист:
1 Colibri 5:59
2 Change 5:04
3 River In My Dreams 1:08
4 Don't You Worry 'Bout A Thing 5:19
5 Magnetic Ocean 5:18
6 I Love What You Do For Me 4:27
7 Closer To The Feeling 4:20
8 L'Arc En Ciel De Miles 3:59
9 Need To Know 5:15
10 Pyramids 4:19
11 Tribal Vibes 5:55
12 Celebrate Your Life 5:38
13 Keep The Promise (Duet) 3:54
14 Bata Rumba 1:54
 
Лог создания рипа
Exact Audio Copy V1.0 beta 3 from 29. August 2011
EAC extraction logfile from 7. October 2017, 14:36
Incognito / Tribes, Vibes and Scribes
Used drive : Optiarc DVD RW AD-7173A Adapter: 3 ID: 0
Read mode : Secure
Utilize accurate stream : Yes
Defeat audio cache : Yes
Make use of C2 pointers : No
Read offset correction : 48
Overread into Lead-In and Lead-Out : No
Fill up missing offset samples with silence : Yes
Delete leading and trailing silent blocks : No
Null samples used in CRC calculations : Yes
Used interface : Native Win32 interface for Win NT & 2000
Gap handling : Appended to previous track
Used output format : Internal WAV Routines
Sample format : 44.100 Hz; 16 Bit; Stereo
TOC of the extracted CD
Track | Start | Length | Start sector | End sector
---------------------------------------------------------
1 | 0:00.37 | 5:59.58 | 37 | 27019
2 | 6:00.20 | 5:05.00 | 27020 | 49894
3 | 11:05.20 | 1:08.22 | 49895 | 55016
4 | 12:13.42 | 5:19.73 | 55017 | 79014
5 | 17:33.40 | 5:19.32 | 79015 | 102971
6 | 22:52.72 | 4:30.23 | 102972 | 123244
7 | 27:23.20 | 4:22.17 | 123245 | 142911
8 | 31:45.37 | 4:01.33 | 142912 | 161019
9 | 35:46.70 | 5:15.30 | 161020 | 184674
10 | 41:02.25 | 4:19.60 | 184675 | 204159
11 | 45:22.10 | 5:54.70 | 204160 | 230779
12 | 51:17.05 | 5:38.67 | 230780 | 256196
13 | 56:55.72 | 3:54.28 | 256197 | 273774
14 | 60:50.25 | 1:54.70 | 273775 | 282394
Track 1
Filename D:\Incognito 1992 Tribes, Vibes and Scribes (PHCR-35)\01 Colibri.wav
Pre-gap length 0:00:02.37
Peak level 100.0 %
Extraction speed 4.7 X
Track quality 100.0 %
Test CRC 64FEDE79
Copy CRC 64FEDE79
Accurately ripped (confidence 7) [95C7D24D] (AR v2)
Copy OK
Track 2
Filename D:\Incognito 1992 Tribes, Vibes and Scribes (PHCR-35)\02 Change.wav
Peak level 92.8 %
Extraction speed 5.2 X
Track quality 100.0 %
Test CRC 18CE765D
Copy CRC 18CE765D
Accurately ripped (confidence 7) [C399092B] (AR v2)
Copy OK
Track 3
Filename D:\Incognito 1992 Tribes, Vibes and Scribes (PHCR-35)\03 River In My Dreams.wav
Peak level 32.1 %
Extraction speed 3.9 X
Track quality 100.0 %
Test CRC C130C68C
Copy CRC C130C68C
Accurately ripped (confidence 7) [62471E53] (AR v2)
Copy OK
Track 4
Filename D:\Incognito 1992 Tribes, Vibes and Scribes (PHCR-35)\04 Don't You Worry Bout A Thing.wav
Peak level 100.0 %
Extraction speed 5.9 X
Track quality 100.0 %
Test CRC 37999C60
Copy CRC 37999C60
Accurately ripped (confidence 7) [AF3FCD92] (AR v2)
Copy OK
Track 5
Filename D:\Incognito 1992 Tribes, Vibes and Scribes (PHCR-35)\05 Magnetic Ocean.wav
Peak level 69.6 %
Extraction speed 4.8 X
Track quality 99.9 %
Test CRC F8C97177
Copy CRC F8C97177
Accurately ripped (confidence 7) [6704ECB4] (AR v2)
Copy OK
Track 6
Filename D:\Incognito 1992 Tribes, Vibes and Scribes (PHCR-35)\06 I Love What You Do For Me.wav
Peak level 91.1 %
Extraction speed 6.7 X
Track quality 100.0 %
Test CRC A0989F9A
Copy CRC A0989F9A
Accurately ripped (confidence 7) [386C313D] (AR v2)
Copy OK
Track 7
Filename D:\Incognito 1992 Tribes, Vibes and Scribes (PHCR-35)\07 Close To The Feeling.wav
Pre-gap length 0:00:01.64
Peak level 94.0 %
Extraction speed 7.0 X
Track quality 100.0 %
Test CRC F8C80FEB
Copy CRC F8C80FEB
Accurately ripped (confidence 7) [6E9F141D] (AR v2)
Copy OK
Track 8
Filename D:\Incognito 1992 Tribes, Vibes and Scribes (PHCR-35)\08 L'Arc En Ciel De Miles.wav
Peak level 96.4 %
Extraction speed 7.2 X
Track quality 100.0 %
Test CRC BC7338C1
Copy CRC BC7338C1
Accurately ripped (confidence 7) [40A7398C] (AR v2)
Copy OK
Track 9
Filename D:\Incognito 1992 Tribes, Vibes and Scribes (PHCR-35)\09 Need To Know.wav
Peak level 100.0 %
Extraction speed 7.0 X
Track quality 99.9 %
Test CRC 43F67E2D
Copy CRC 43F67E2D
Accurately ripped (confidence 7) [1BA09353] (AR v2)
Copy OK
Track 10
Filename D:\Incognito 1992 Tribes, Vibes and Scribes (PHCR-35)\10 Pyramids.wav
Peak level 99.9 %
Extraction speed 2.9 X
Track quality 99.5 %
Test CRC 1B7FC66F
Copy CRC 1B7FC66F
Accurately ripped (confidence 7) [B3B5335B] (AR v2)
Copy OK
Track 11
Filename D:\Incognito 1992 Tribes, Vibes and Scribes (PHCR-35)\11 Tribal Vibes.wav
Peak level 98.1 %
Extraction speed 8.4 X
Track quality 100.0 %
Test CRC 696B35B1
Copy CRC 696B35B1
Accurately ripped (confidence 7) [CB2B4CDA] (AR v2)
Copy OK
Track 12
Filename D:\Incognito 1992 Tribes, Vibes and Scribes (PHCR-35)\12 Celebrate Your Life.wav
Peak level 100.0 %
Extraction speed 8.7 X
Track quality 100.0 %
Test CRC F7EF886D
Copy CRC F7EF886D
Accurately ripped (confidence 7) [66681B36] (AR v2)
Copy OK
Track 13
Filename D:\Incognito 1992 Tribes, Vibes and Scribes (PHCR-35)\13 Keep The Promise.wav
Peak level 100.0 %
Extraction speed 7.4 X
Track quality 99.9 %
Test CRC A8936454
Copy CRC A8936454
Accurately ripped (confidence 7) [7B4A6A68] (AR v2)
Copy OK
Track 14
Filename D:\Incognito 1992 Tribes, Vibes and Scribes (PHCR-35)\14 Bata Rumba.wav
Peak level 93.1 %
Extraction speed 7.5 X
Track quality 100.0 %
Test CRC CCF4B96D
Copy CRC CCF4B96D
Accurately ripped (confidence 7) [5DD6E396] (AR v2)
Copy OK
All tracks accurately ripped
No errors occurred
End of status report
==== Log checksum 251F5F2EF2EA025D79F3823AA4F3F396BAA346787D985CF4A0DD82A45D7156D7 ====
 
Содержание индексной карты (.CUE)
REM DATE 1992
REM DISCID CA0EB50E
REM COMMENT "ExactAudioCopy v1.0b3"
PERFORMER "Incognito"
TITLE "Tribes, Vibes and Scribes"
FILE "01 Colibri.wav" WAVE
TRACK 01 AUDIO
TITLE "Colibri"
PERFORMER "Incognito"
PREGAP 00:00:37
INDEX 01 00:00:00
FILE "02 Change.wav" WAVE
TRACK 02 AUDIO
TITLE "Change"
PERFORMER "Incognito"
INDEX 01 00:00:00
FILE "03 River In My Dreams.wav" WAVE
TRACK 03 AUDIO
TITLE "River In My Dreams"
PERFORMER "Incognito"
INDEX 01 00:00:00
FILE "04 Don't You Worry Bout A Thing.wav" WAVE
TRACK 04 AUDIO
TITLE "Don't You Worry Bout A Thing"
PERFORMER "Incognito"
INDEX 01 00:00:00
FILE "05 Magnetic Ocean.wav" WAVE
TRACK 05 AUDIO
TITLE "Magnetic Ocean"
PERFORMER "Incognito"
INDEX 01 00:00:00
FILE "06 I Love What You Do For Me.wav" WAVE
TRACK 06 AUDIO
TITLE "I Love What You Do For Me"
PERFORMER "Incognito"
INDEX 01 00:00:00
TRACK 07 AUDIO
TITLE "Close To The Feeling"
PERFORMER "Incognito"
INDEX 00 04:28:34
FILE "07 Close To The Feeling.wav" WAVE
INDEX 01 00:00:00
FILE "08 L'Arc En Ciel De Miles.wav" WAVE
TRACK 08 AUDIO
TITLE "L'Arc En Ciel De Miles"
PERFORMER "Incognito"
INDEX 01 00:00:00
FILE "09 Need To Know.wav" WAVE
TRACK 09 AUDIO
TITLE "Need To Know"
PERFORMER "Incognito"
INDEX 01 00:00:00
FILE "10 Pyramids.wav" WAVE
TRACK 10 AUDIO
TITLE "Pyramids"
PERFORMER "Incognito"
INDEX 01 00:00:00
FILE "11 Tribal Vibes.wav" WAVE
TRACK 11 AUDIO
TITLE "Tribal Vibes"
PERFORMER "Incognito"
INDEX 01 00:00:00
FILE "12 Celebrate Your Life.wav" WAVE
TRACK 12 AUDIO
TITLE "Celebrate Your Life"
PERFORMER "Incognito"
INDEX 01 00:00:00
FILE "13 Keep The Promise.wav" WAVE
TRACK 13 AUDIO
TITLE "Keep The Promise"
PERFORMER "Incognito"
INDEX 01 00:00:00
FILE "14 Bata Rumba.wav" WAVE
TRACK 14 AUDIO
TITLE "Bata Rumba"
PERFORMER "Incognito"
INDEX 01 00:00:00
Приватный:
Нет (DHT включён)
Размер:
392.02 Мб (411,058,455 байт) » файлов: 16
Участники:
0 раздают, 0 качают (0 участников всего)
Внешние участники:
2 раздают, 1 качают (3 участников всего) [ Обновить ]
No seeders - write a personal message to user M0p94ok. Нет сидеров - пишите личное сообщение пользователю M0p94ok.
14:47
89
Нет комментариев. Ваш будет первым!