Поиск

(Funk, Soul) [CD] Esther Phillips - A Way To Say Goodbye - 1986, FLAC (tracks+.cue), lossless

(Funk, Soul) [CD] Esther Phillips - A Way To Say Goodbye - 1986, FLAC (tracks+.cue), lossless
Треклист:
Esther Phillips / A Way To Say Goodbye
Жанр: Funk, Soul
Носитель: CD
Страна-производитель диска (релиза): US
Год издания: 1986
Издатель (лейбл): Muse Records
Номер по каталогу: MCD 5302
Страна исполнителя (группы): US
Аудиокодек: FLAC (*.flac)
Тип рипа: tracks+.cue
Битрейт аудио: lossless
Продолжительность: 33:46
Источник (релизер): diaosisou.org
Наличие сканов в содержимом раздачи: нет
Треклист:
1 It's All In The Game 3:00
2 Mama Said 2:58
3 Goin' In Circles 4:55
4 Nowhere To Run 3:20
5 We Are Through 3:07
6 Fa Fa Fa Fa (Sad Song) 2:59
7 Mr. Bojangles 4:32
8 Shake This Off 5:56
9 A Way To Say Goodbye 4:00
 
Лог создания рипа
Exact Audio Copy V0.99 prebeta 2 from 28. July 2007
EAC extraction logfile from 12. August 2012, 10:30
Esther Phillips / A Way To Say Goodbye
Used drive : TSSTcorpCDDVDW SH-S202J Adapter: 3 ID: 0
Read mode : Secure
Utilize accurate stream : Yes
Defeat audio cache : Yes
Make use of C2 pointers : No
Read offset correction : 0
Overread into Lead-In and Lead-Out : No
Fill up missing offset samples with silence : Yes
Delete leading and trailing silent blocks : No
Null samples used in CRC calculations : Yes
Used interface : Native Win32 interface for Win NT & 2000
Gap handling : Appended to previous track
Used output format : User Defined Encoder
Selected bitrate : 768 kBit/s
Quality : High
Add ID3 tag : No
Command line compressor : C:\Program Files\Exact Audio Copy\FLAC\FLAC.EXE
Additional command line options : -6 -V -T "ARTIST=%a" -T "TITLE=%t" -T "ALBUM=%g" -T "DATE=%y" -T "TRACKNUMBER=%n" -T "GENRE=%m" -T "COMMENT=%e" %s -o %d
TOC of the extracted CD
Track | Start | Length | Start sector | End sector
---------------------------------------------------------
1 | 0:00.33 | 2:40.05 | 33 | 12037
2 | 2:40.38 | 3:06.70 | 12038 | 26057
3 | 5:47.33 | 5:03.05 | 26058 | 48787
4 | 10:50.38 | 3:28.17 | 48788 | 64404
5 | 14:18.55 | 3:07.63 | 64405 | 78492
6 | 17:26.43 | 3:05.35 | 78493 | 92402
7 | 20:32.03 | 4:42.15 | 92403 | 113567
8 | 25:14.18 | 4:33.40 | 113568 | 134082
9 | 29:47.58 | 4:05.50 | 134083 | 152507
Track 1
Filename L:\EAC - Convert\Esther Phillips - A Way To Say Goodbye\01. It's All In The Game.wav
Pre-gap length 0:00:02.44
Peak level 74.4 %
Track quality 99.9 %
Test CRC 4F85B487
Copy CRC 4F85B487
Copy OK
Track 2
Filename L:\EAC - Convert\Esther Phillips - A Way To Say Goodbye\02. Mama Said.wav
Pre-gap length 0:00:03.84
Peak level 54.3 %
Track quality 100.0 %
Test CRC EA898627
Copy CRC EA898627
Copy OK
Track 3
Filename L:\EAC - Convert\Esther Phillips - A Way To Say Goodbye\03. Goin' In Circles.wav
Pre-gap length 0:00:03.57
Peak level 52.0 %
Track quality 100.0 %
Test CRC 00969423
Copy CRC 00969423
Copy OK
Track 4
Filename L:\EAC - Convert\Esther Phillips - A Way To Say Goodbye\04. Nowhere To Run.wav
Pre-gap length 0:00:03.66
Peak level 76.7 %
Track quality 99.9 %
Test CRC 8DB297DE
Copy CRC 8DB297DE
Copy OK
Track 5
Filename L:\EAC - Convert\Esther Phillips - A Way To Say Goodbye\05. We Are Through.wav
Pre-gap length 0:00:03.89
Peak level 49.5 %
Track quality 100.0 %
Test CRC 6AF70F82
Copy CRC 6AF70F82
Copy OK
Track 6
Filename L:\EAC - Convert\Esther Phillips - A Way To Say Goodbye\06. Fa Fa Fa (Sad Song).wav
Pre-gap length 0:00:03.17
Peak level 79.5 %
Track quality 100.0 %
Test CRC 7CBA4CAF
Copy CRC 7CBA4CAF
Copy OK
Track 7
Filename L:\EAC - Convert\Esther Phillips - A Way To Say Goodbye\07. Mr Bojangles.wav
Pre-gap length 0:00:03.40
Peak level 100.0 %
Track quality 100.0 %
Test CRC C6606786
Copy CRC C6606786
Copy OK
Track 8
Filename L:\EAC - Convert\Esther Phillips - A Way To Say Goodbye\08. Shake This Off.wav
Pre-gap length 0:00:03.40
Peak level 100.0 %
Track quality 100.0 %
Test CRC 2B89A40D
Copy CRC 2B89A40D
Copy OK
Track 9
Filename L:\EAC - Convert\Esther Phillips - A Way To Say Goodbye\09. A Way To Say Goodbye.wav
Pre-gap length 0:00:03.93
Peak level 40.5 %
Track quality 100.0 %
Test CRC 9FFB2390
Copy CRC 9FFB2390
Copy OK
No errors occurred
End of status report
 
Содержание индексной карты (.CUE)
REM GENRE "Blues / Soul And R&B"
REM DATE 1992
REM DISCID 7307F109
REM COMMENT "ExactAudioCopy v0.99pb2"
PERFORMER "Esther Phillips"
TITLE "A Way To Say Goodbye"
FILE "01. It's All In The Game.wav" WAVE
TRACK 01 AUDIO
TITLE "It's All In The Game"
PERFORMER "Esther Phillips"
FLAGS PRE
PREGAP 00:00:33
INDEX 01 00:00:00
TRACK 02 AUDIO
TITLE "Mama Said"
PERFORMER "Esther Phillips"
FLAGS PRE
INDEX 00 02:36:17
FILE "02. Mama Said.wav" WAVE
INDEX 01 00:00:00
TRACK 03 AUDIO
TITLE "Goin' In Circles"
PERFORMER "Esther Phillips"
FLAGS PRE
INDEX 00 03:03:27
FILE "03. Goin' In Circles.wav" WAVE
INDEX 01 00:00:00
TRACK 04 AUDIO
TITLE "Nowhere To Run"
PERFORMER "Esther Phillips"
FLAGS PRE
INDEX 00 04:59:30
FILE "04. Nowhere To Run.wav" WAVE
INDEX 01 00:00:00
TRACK 05 AUDIO
TITLE "We Are Through"
PERFORMER "Esther Phillips"
FLAGS PRE
INDEX 00 03:24:25
FILE "05. We Are Through.wav" WAVE
INDEX 01 00:00:00
TRACK 06 AUDIO
TITLE "Fa Fa Fa (Sad Song)"
PERFORMER "Esther Phillips"
FLAGS PRE
INDEX 00 03:04:50
FILE "06. Fa Fa Fa (Sad Song).wav" WAVE
INDEX 01 00:00:00
TRACK 07 AUDIO
TITLE "Mr Bojangles"
PERFORMER "Esther Phillips"
FLAGS PRE
INDEX 00 03:02:05
FILE "07. Mr Bojangles.wav" WAVE
INDEX 01 00:00:00
TRACK 08 AUDIO
TITLE "Shake This Off"
PERFORMER "Esther Phillips"
FLAGS PRE
INDEX 00 04:38:60
FILE "08. Shake This Off.wav" WAVE
INDEX 01 00:00:00
TRACK 09 AUDIO
TITLE "A Way To Say Goodbye"
PERFORMER "Esther Phillips"
FLAGS PRE
INDEX 00 04:29:45
FILE "09. A Way To Say Goodbye.wav" WAVE
INDEX 01 00:00:00
 
проверка контрольных сумм


 
Об исполнителе (группе)
Американская певица в стиле блюз, R&B, джаз и соул.
4 раза — номинант Grammy
в 1986 и 1987 — номинант на включение в список Rock and Roll Hall of Fame
 
Состав
Backing Vocals – Angela Cappeli*, John Baranco, Peter Coefield, Rachelle Capelli*
Bass – Ronnie Cuber
Guitar – Keith Loving
Keyboards, Drums – Jerry Chaikin
Producer – David Matthews*, Jerry Chaikin
Saxophone – George Young (2)
Trumpet – Joe Shepley
Vocals – Esther Phillips
Приватный:
Нет (DHT включён)
Размер:
188.80 Мб (197,971,787 байт) » файлов: 17
Участники:
0 раздают, 0 качают (0 участников всего)
Внешние участники:
3 раздают, 1 качают (4 участников всего) [ Обновить ]
Есть вопросы - пишите личное сообщение пользователю M0p94ok.
14:46
73
Нет комментариев. Ваш будет первым!