Поиск

(Funk) [CD] James Brown - The Original Disco Man - 1979, WavPack (image+.cue), lossless

(Funk) [CD] James Brown - The Original Disco Man - 1979, WavPack (image+.cue), lossless
Треклист:
James Brown / The Original Disco Man
Жанр: Funk
Носитель: CD
Страна-производитель диска (релиза): EU
Год издания: 1979 (2003)
Издатель (лейбл): Universal ‎
Номер по каталогу: 076 014-2
Страна исполнителя (группы): USA
Аудиокодек: WavPack (*.wv)
Тип рипа: image+.cue
Битрейт аудио: lossless
Продолжительность: 00:44:03
Источник (релизер): AUDELAS
Наличие сканов в содержимом раздачи: нет
Треклист:
01. It's Too Funky In Here
02. Let The Boogie Do The Rest
03. Still
04. Star Generation
05. Women Are Something Else
06. The Original Disco Man
07. Love Me Tender
 
Лог создания рипа
Exact Audio Copy V1.3 from 2. September 2016
EAC extraction logfile from 8. October 2017, 18:57
James Brown / The Original Disco Man
Used drive : ATAPI iHAS124 B Adapter: 1 ID: 1
Read mode : Secure
Utilize accurate stream : Yes
Defeat audio cache : Yes
Make use of C2 pointers : No
Read offset correction : 6
Overread into Lead-In and Lead-Out : No
Fill up missing offset samples with silence : Yes
Delete leading and trailing silent blocks : No
Null samples used in CRC calculations : Yes
Used interface : Installed external ASPI interface
Used output format : User Defined Encoder
Selected bitrate : 1024 kBit/s
Quality : High
Add ID3 tag : No
Command line compressor : C:\Program Files\Wavpack\wavpack.exe
Additional command line options : -hm -w "Year=%year%" -w "Genre=%genre%" %source% %dest%
TOC of the extracted CD
Track | Start | Length | Start sector | End sector
---------------------------------------------------------
1 | 0:00.00 | 6:34.49 | 0 | 29598
2 | 6:34.49 | 7:23.74 | 29599 | 62897
3 | 13:58.48 | 6:06.05 | 62898 | 90352
4 | 20:04.53 | 8:09.15 | 90353 | 127042
5 | 28:13.68 | 6:01.63 | 127043 | 154180
6 | 34:15.56 | 6:57.68 | 154181 | 185523
7 | 41:13.49 | 2:49.26 | 185524 | 198224
Range status and errors
Selected range
Filename E:\Atsisiųsti failai\James Brown - The Original Disco Man (1979 - 2003 Reissue - WV)\James Brown - The Original Disco Man.wav
Peak level 89.7 %
Extraction speed 3.2 X
Range quality 100.0 %
Test CRC 8812FCC0
Copy CRC 8812FCC0
Copy OK
No errors occurred
AccurateRip summary
Track 1 not present in database
Track 2 not present in database
Track 3 not present in database
Track 4 not present in database
Track 5 not present in database
Track 6 not present in database
Track 7 not present in database
None of the tracks are present in the AccurateRip database
End of status report
==== Log checksum BDA824FC735CF1F59CF1193314349DB0EF92508EEE9985695E45D5474C311261 ====
Приватный:
Нет (DHT включён)
Размер:
284.78 Мб (298,608,648 байт) » файлов: 6
Участники:
0 раздают, 0 качают (0 участников всего)
Внешние участники:
2 раздают, 1 качают (3 участников всего) [ Обновить ]
Есть вопросы - пишите личное сообщение пользователю M0p94ok.
14:47
49
Нет комментариев. Ваш будет первым!