Поиск

(Jazz-Funk) [CD] Donald Byrd And 125th Street, N.Y.C. - Donald Byrd And 125th Street, N.Y.C. (1979) - 2013 {Japan Jazz Best Collection 1000 Series 24bit Remaster, WPCR-27460}, FLAC (tracks+.cue), lossless

(Jazz-Funk) [CD] Donald Byrd And 125th Street, N.Y.C. - Donald Byrd And 125th Street, N.Y.C. (1979) - 2013 {Japan Jazz Best Collection 1000 Series 24bit Remaster, WPCR-27460}, FLAC (tracks+.cue), lossless
Треклист:
Donald Byrd And 125th Street, N.Y.C. - Donald Byrd And 125th Street, N.Y.C. (1979)
Жанр: Jazz-Funk
Носитель: CD
Страна-производитель диска: EU
Год издания: 2013
Издатель (лейбл): Elektra/Warner Music Japan/WEA
Номер по каталогу: 8122-79590-0/WPCR-27460
Аудиокодек: FLAC (*.flac)
Тип рипа: tracks+.cue
Битрейт аудио: lossless
Продолжительность: 37:16
Rip by JET 1
Наличие сканов в содержимом раздачи: да
Треклист:
01. Pretty Baby (5:07)
02. Gold The Moon, White The Sun (5:34)
03. Giving It Up (5:10)
04. Marilyn (4:00)
05. People Suppose To Be Free (4:48)
06. Veronica (4:28)
07. Morning (4:07)
08. I Love You (4:03)
Personnel:
Donald Byrd - trumpet, flugelhorn
Peter Christlieb - saxophone
Ernie Watts - flute
Clare Fischer - keyboards, alto saxophone
William (Country) Duckett - electric guitar
Marcus Carlisle - steel guitar
Ronnie Garrett - bass
Victor (Butch) Azevedo - drums, percussion
Jim Gilstrap, John Lehman, Joyce Michael, Michael Campbell, Mitch Gordon, Zedric Turnbough - vocals
 
 
Лог создания рипа
Exact Audio Copy V1.3 from 2. September 2016
EAC extraction logfile from 16. January 2017, 20:28
Donald Byrd and 125th Street, N.Y.C. / Donald Byrd and 125th Street, N.Y.C.
Used drive : GENERIC CDRCB05 Adapter: 1 ID: 1
Read mode : Secure
Utilize accurate stream : Yes
Defeat audio cache : Yes
Make use of C2 pointers : No
Read offset correction : 102
Overread into Lead-In and Lead-Out : No
Fill up missing offset samples with silence : Yes
Delete leading and trailing silent blocks : No
Null samples used in CRC calculations : Yes
Used interface : Native Win32 interface for Win NT & 2000
Gap handling : Appended to previous track
Used output format : User Defined Encoder
Selected bitrate : 768 kBit/s
Quality : High
Add ID3 tag : No
Command line compressor : C:\Program Files (x86)\Exact Audio Copy\FLAC\FLAC.EXE
Additional command line options : -6 -V -T "ARTIST=%artist%" -T "TITLE=%title%" -T "ALBUM=%albumtitle%" -T "DATE=%year%" -T "TRACKNUMBER=%tracknr%" -T "GENRE=%genre%" -T "COMMENT=%comment%" -T "BAND=%albuminterpret%" -T "ALBUMARTIST=%albuminterpret%" -T "COMPOSER=%composer%" %haslyrics%--tag-from-file=LYRICS="%lyricsfile%"%haslyrics% -T "DISCNUMBER=%cdnumber%" -T "TOTALDISCS=%totalcds%" -T "TOTALTRACKS=%numtracks%" %hascover%--picture="%coverfile%"%hascover% %source% -o %dest%
TOC of the extracted CD
Track | Start | Length | Start sector | End sector
---------------------------------------------------------
1 | 0:00.00 | 5:06.48 | 0 | 22997
2 | 5:06.48 | 5:33.48 | 22998 | 48020
3 | 10:40.21 | 5:10.16 | 48021 | 71286
4 | 15:50.37 | 4:00.05 | 71287 | 89291
5 | 19:50.42 | 4:47.64 | 89292 | 110880
6 | 24:38.31 | 4:27.72 | 110881 | 130977
7 | 29:06.28 | 4:06.57 | 130978 | 149484
8 | 33:13.10 | 4:02.70 | 149485 | 167704
Track 1
Filename J:\Donald Byrd And 125th Street, N.Y.C. ‎- Donald Byrd And 125th Street, N.Y.C. (1979) [2014]\01 Pretty Baby.wav
Pre-gap length 0:00:02.00
Peak level 100.0 %
Extraction speed 2.4 X
Track quality 100.0 %
Test CRC 47B896FC
Copy CRC 47B896FC
Accurately ripped (confidence 7) [C8031666] (AR v2)
Copy OK
Track 2
Filename J:\Donald Byrd And 125th Street, N.Y.C. ‎- Donald Byrd And 125th Street, N.Y.C. (1979) [2014]\02 Gold the Moon, White the Sun.wav
Pre-gap length 0:00:06.57
Peak level 100.0 %
Extraction speed 2.6 X
Track quality 99.9 %
Test CRC 076D7D89
Copy CRC 076D7D89
Accurately ripped (confidence 7) [5C94241B] (AR v2)
Copy OK
Track 3
Filename J:\Donald Byrd And 125th Street, N.Y.C. ‎- Donald Byrd And 125th Street, N.Y.C. (1979) [2014]\03 Giving It Up.wav
Pre-gap length 0:00:02.38
Peak level 100.0 %
Extraction speed 3.1 X
Track quality 100.0 %
Test CRC 84E28E5C
Copy CRC 84E28E5C
Accurately ripped (confidence 7) [4700A88A] (AR v2)
Copy OK
Track 4
Filename J:\Donald Byrd And 125th Street, N.Y.C. ‎- Donald Byrd And 125th Street, N.Y.C. (1979) [2014]\04 Marilyn.wav
Pre-gap length 0:00:06.01
Peak level 100.0 %
Extraction speed 3.2 X
Track quality 100.0 %
Test CRC D1FC58ED
Copy CRC D1FC58ED
Accurately ripped (confidence 7) [37EE8195] (AR v2)
Copy OK
Track 5
Filename J:\Donald Byrd And 125th Street, N.Y.C. ‎- Donald Byrd And 125th Street, N.Y.C. (1979) [2014]\05 People Suppose to Be Free.wav
Pre-gap length 0:00:02.29
Peak level 100.0 %
Extraction speed 3.1 X
Track quality 99.9 %
Test CRC C7985CB1
Copy CRC C7985CB1
Accurately ripped (confidence 7) [75C10F1B] (AR v2)
Copy OK
Track 6
Filename J:\Donald Byrd And 125th Street, N.Y.C. ‎- Donald Byrd And 125th Street, N.Y.C. (1979) [2014]\06 Veronica.wav
Pre-gap length 0:00:05.07
Peak level 100.0 %
Extraction speed 3.6 X
Track quality 100.0 %
Test CRC 5D999BFE
Copy CRC 5D999BFE
Accurately ripped (confidence 7) [5F4F2F2F] (AR v2)
Copy OK
Track 7
Filename J:\Donald Byrd And 125th Street, N.Y.C. ‎- Donald Byrd And 125th Street, N.Y.C. (1979) [2014]\07 Morning.wav
Pre-gap length 0:00:04.34
Peak level 100.0 %
Extraction speed 3.8 X
Track quality 100.0 %
Test CRC 65DD448B
Copy CRC 65DD448B
Accurately ripped (confidence 7) [3AF7F5A2] (AR v2)
Copy OK
Track 8
Filename J:\Donald Byrd And 125th Street, N.Y.C. ‎- Donald Byrd And 125th Street, N.Y.C. (1979) [2014]\08 I Love You.wav
Pre-gap length 0:00:02.33
Peak level 100.0 %
Extraction speed 3.9 X
Track quality 100.0 %
Test CRC 38968568
Copy CRC 38968568
Accurately ripped (confidence 7) [90FA3CA6] (AR v2)
Copy OK
All tracks accurately ripped
No errors occurred
End of status report
---- CUETools DB Plugin V2.1.6
[CTDB TOCID: DglD5cP_8SpR1Am0.JOxp9G4fCc-] found
Submit result: DglD5cP_8SpR1Am0.JOxp9G4fCc- has been confirmed
Track | CTDB Status
1 | (9/9) Accurately ripped
2 | (9/9) Accurately ripped
3 | (9/9) Accurately ripped
4 | (9/9) Accurately ripped
5 | (9/9) Accurately ripped
6 | (9/9) Accurately ripped
7 | (9/9) Accurately ripped
8 | (9/9) Accurately ripped
==== Log checksum F77417977BC9FB135068D0D9A0E921CC06AFB2A8A3C696BEB1305CC8D6184716 ====
 
Содержание индексной карты (.CUE)
REM GENRE Jazz
REM DATE 1979
REM DISCID 6F08BC08
REM COMMENT "ExactAudioCopy v1.3"
PERFORMER "Donald Byrd And 125th Street, N.Y.C."
TITLE "Donald Byrd And 125th Street, N.Y.C."
FILE "01. Pretty Baby.flac" WAVE
TRACK 01 AUDIO
TITLE "Pretty Baby"
PERFORMER "Donald Byrd And 125th Street, N.Y.C."
INDEX 01 00:00:00
TRACK 02 AUDIO
TITLE "Gold The Moon, White The Sun"
PERFORMER "Donald Byrd And 125th Street, N.Y.C."
INDEX 00 04:59:66
FILE "02. Gold The Moon, White The Sun.flac" WAVE
INDEX 01 00:00:00
TRACK 03 AUDIO
TITLE "Giving It Up"
PERFORMER "Donald Byrd And 125th Street, N.Y.C."
INDEX 00 05:31:10
FILE "03. Giving It Up.flac" WAVE
INDEX 01 00:00:00
TRACK 04 AUDIO
TITLE "Marilyn"
PERFORMER "Donald Byrd And 125th Street, N.Y.C."
INDEX 00 05:04:15
FILE "04. Marilyn.flac" WAVE
INDEX 01 00:00:00
TRACK 05 AUDIO
TITLE "People Suppose To Be Free"
PERFORMER "Donald Byrd And 125th Street, N.Y.C."
INDEX 00 03:57:51
FILE "05. People Suppose To Be Free.flac" WAVE
INDEX 01 00:00:00
TRACK 06 AUDIO
TITLE "Veronica"
PERFORMER "Donald Byrd And 125th Street, N.Y.C."
INDEX 00 04:42:57
FILE "06. Veronica.flac" WAVE
INDEX 01 00:00:00
TRACK 07 AUDIO
TITLE "Morning"
PERFORMER "Donald Byrd And 125th Street, N.Y.C."
INDEX 00 04:23:38
FILE "07. Morning.flac" WAVE
INDEX 01 00:00:00
TRACK 08 AUDIO
TITLE "I Love You"
PERFORMER "Donald Byrd And 125th Street, N.Y.C."
INDEX 00 04:04:24
FILE "08. I Love You.flac" WAVE
INDEX 01 00:00:00
Приватный:
Нет (DHT включён)
Размер:
283.29 Мб (297,050,141 байт) » файлов: 19
Участники:
0 раздают, 0 качают (0 участников всего)
Внешние участники:
3 раздают, 1 качают (4 участников всего) [ Обновить ]
Есть вопросы - пишите личное сообщение пользователю M0p94ok.
12:44
81
Нет комментариев. Ваш будет первым!