Поиск

(Funk, Soul) [CD] Sir Joe Quarterman & Free Soul - Sir Joe Quarterman & Free Soul - 2007, FLAC (tracks+.cue), lossless

(Funk, Soul) [CD] Sir Joe Quarterman & Free Soul - Sir Joe Quarterman & Free Soul - 2007, FLAC (tracks+.cue), lossless
Треклист:
Sir Joe Quarterman & Free Soul / Sir Joe Quarterman & Free Soul
Жанр: Funk, Soul
Носитель: CD
Страна-производитель диска (релиза): England
Год издания: 2007 (1973)
Издатель (лейбл): Soul Brother Records
Страна исполнителя (группы): United States
Аудиокодек: FLAC (*.flac)
Тип рипа: tracks+.cue
Битрейт аудио: lossless
Продолжительность: 1:10:30
Источник (релизер): WEB
Наличие сканов в содержимом раздачи: да
Треклист:
1. (I Got) So Much Trouble In My Mind
2. I Made A Promise
3. The Trouble With Trouble
4. The Way They Do My Life
5. Find Yourself
6. Gonna Get Me A Friend
7. Give Me Back My Freedom
8. I Feel Like This
9. Live Now Brothers
10. Thanks Dad (Part 1 & 2)
11. I'm Gonna Get You
12. This Girl Of Mine (She's Good To Me)
13. No
14. Get Down Baby (Part 1 & 2)
15. I'm A Young Man
16. How High
17. Let Me Be What I Am
18. You Know It's True
 
Лог создания рипа
Exact Audio Copy V1.0 beta 3 from 29. August 2011
EAC extraction logfile from 9. July 2012, 15:26
Sir Joe Quarterman & Free Soul / aibum
Used drive : PIONEER DVD-RW DVR-118L Adapter: 1 ID: 0
Read mode : Secure
Utilize accurate stream : Yes
Defeat audio cache : Yes
Make use of C2 pointers : No
Read offset correction : 6
Overread into Lead-In and Lead-Out : No
Fill up missing offset samples with silence : Yes
Delete leading and trailing silent blocks : No
Null samples used in CRC calculations : Yes
Used interface : Native Win32 interface for Win NT & 2000
Gap handling : Appended to previous track
Used output format : User Defined Encoder
Selected bitrate : 128 kBit/s
Quality : High
Add ID3 tag : No
Command line compressor : C:\Program Files\Exact Audio Copy\Flac\flac.exe
Additional command line options : -8 -V -T "ARTIST=%artist%" -T "TITLE=%title%" -T "ALBUM=%albumtitle%" -T "DATE=%year%" -T "TRACKNUMBER=%tracknr%" -T "GENRE=%genre%" -T "PERFORMER=%albuminterpret%" -T "COMPOSER=%composer%" %haslyrics%--tag-from-file=LYRICS="%lyricsfile%"%haslyrics% -T "ALBUMARTIST=%albumartist%" -T "DISCNUMBER=%cdnumber%" -T "TOTALDISCS=%totalcds%" -T "TOTALTRACKS=%numtracks%" -T "COMMENT=%comment%" %source% -o %dest%
TOC of the extracted CD
Track | Start | Length | Start sector | End sector
---------------------------------------------------------
1 | 0:00.00 | 6:19.61 | 0 | 28485
2 | 6:19.61 | 4:14.38 | 28486 | 47573
3 | 10:34.24 | 2:47.47 | 47574 | 60145
4 | 13:21.71 | 3:02.42 | 60146 | 73837
5 | 16:24.38 | 2:58.59 | 73838 | 87246
6 | 19:23.22 | 2:04.48 | 87247 | 96594
7 | 21:27.70 | 3:32.22 | 96595 | 112516
8 | 25:00.17 | 2:56.26 | 112517 | 125742
9 | 27:56.43 | 3:01.65 | 125743 | 139382
10 | 30:58.33 | 8:01.29 | 139383 | 175486
11 | 38:59.62 | 2:54.68 | 175487 | 188604
12 | 41:54.55 | 2:58.48 | 188605 | 202002
13 | 44:53.28 | 4:05.58 | 202003 | 220435
14 | 48:59.11 | 4:43.62 | 220436 | 241722
15 | 53:42.73 | 4:15.26 | 241723 | 260873
16 | 57:58.24 | 3:53.15 | 260874 | 278363
17 | 61:51.39 | 3:02.73 | 278364 | 292086
18 | 64:54.37 | 5:35.65 | 292087 | 317276
Track 1
Filename C:\EAC\01 - (I Got) So Much Trouble In My Mind.wav
Pre-gap length 0:00:02.00
Peak level 95.5 %
Extraction speed 1.1 X
Track quality 99.9 %
Test CRC 23AA9233
Copy CRC 23AA9233
Accurately ripped (confidence 1) [538EF32A] (AR v1)
Copy OK
Track 2
Filename C:\EAC\02 - I Made A Promise.wav
Pre-gap length 0:00:02.51
Peak level 99.8 %
Extraction speed 1.3 X
Track quality 100.0 %
Test CRC A72B3FAB
Copy CRC A72B3FAB
Accurately ripped (confidence 1) [233FA5F0] (AR v1)
Copy OK
Track 3
Filename C:\EAC\03 - The Trouble With Trouble.wav
Pre-gap length 0:00:02.51
Peak level 98.8 %
Extraction speed 1.1 X
Track quality 99.9 %
Test CRC 27CD5EE8
Copy CRC 27CD5EE8
Accurately ripped (confidence 1) [7E5ECD77] (AR v1)
Copy OK
Track 4
Filename C:\EAC\04 - The Way They Do My Life.wav
Pre-gap length 0:00:02.51
Peak level 98.8 %
Extraction speed 1.2 X
Track quality 99.9 %
Test CRC 346F8646
Copy CRC 346F8646
Accurately ripped (confidence 1) [9DEEBB74] (AR v1)
Copy OK
Track 5
Filename C:\EAC\05 - Find Yourself.wav
Pre-gap length 0:00:02.51
Peak level 98.8 %
Extraction speed 1.4 X
Track quality 100.0 %
Test CRC 8C82E86B
Copy CRC 8C82E86B
Accurately ripped (confidence 1) [7CCCD618] (AR v1)
Copy OK
Track 6
Filename C:\EAC\06 - Gonna Get Me A Friend.wav
Pre-gap length 0:00:02.51
Peak level 98.8 %
Extraction speed 1.4 X
Track quality 100.0 %
Test CRC 0798EA02
Copy CRC 0798EA02
Accurately ripped (confidence 1) [AAA3627F] (AR v1)
Copy OK
Track 7
Filename C:\EAC\07 - Give Me Back My Freedom.wav
Pre-gap length 0:00:02.51
Peak level 98.8 %
Extraction speed 1.6 X
Track quality 100.0 %
Test CRC D02AFB67
Copy CRC D02AFB67
Accurately ripped (confidence 1) [9C4EE03D] (AR v1)
Copy OK
Track 8
Filename C:\EAC\08 - I Feel Like This.wav
Pre-gap length 0:00:02.51
Peak level 100.0 %
Extraction speed 1.6 X
Track quality 100.0 %
Test CRC DD982CFA
Copy CRC DD982CFA
Accurately ripped (confidence 1) [92D1F173] (AR v1)
Copy OK
Track 9
Filename C:\EAC\09 - Live Now Brothers.wav
Pre-gap length 0:00:02.51
Peak level 98.8 %
Extraction speed 1.7 X
Track quality 100.0 %
Test CRC A4F9C72C
Copy CRC A4F9C72C
Accurately ripped (confidence 1) [2202C577] (AR v1)
Copy OK
Track 10
Filename C:\EAC\10 - Thanks Dad (Part 1 & 2).wav
Pre-gap length 0:00:02.51
Peak level 98.8 %
Extraction speed 1.8 X
Track quality 99.9 %
Test CRC 54456CEC
Copy CRC 54456CEC
Accurately ripped (confidence 1) [F5409562] (AR v1)
Copy OK
Track 11
Filename C:\EAC\11 - I'm Gonna Get You.wav
Pre-gap length 0:00:02.51
Peak level 98.8 %
Extraction speed 1.8 X
Track quality 100.0 %
Test CRC 56D9A50B
Copy CRC 56D9A50B
Accurately ripped (confidence 1) [C8D67AC7] (AR v1)
Copy OK
Track 12
Filename C:\EAC\12 - This Girl Of Mine (She's Good To Me).wav
Pre-gap length 0:00:02.51
Peak level 98.8 %
Extraction speed 1.6 X
Track quality 99.9 %
Test CRC AE5554DF
Copy CRC AE5554DF
Accurately ripped (confidence 1) [7ACE51AC] (AR v1)
Copy OK
Track 13
Filename C:\EAC\13 - No.wav
Pre-gap length 0:00:02.51
Peak level 98.8 %
Extraction speed 2.1 X
Track quality 100.0 %
Test CRC BC75CB1E
Copy CRC BC75CB1E
Accurately ripped (confidence 1) [5EE7563F] (AR v1)
Copy OK
Track 14
Filename C:\EAC\14 - Get Down Baby (Part 1 & 2).wav
Pre-gap length 0:00:02.51
Peak level 98.8 %
Extraction speed 1.9 X
Track quality 99.9 %
Test CRC B311A19E
Copy CRC B311A19E
Accurately ripped (confidence 1) [F9EC497D] (AR v1)
Copy OK
Track 15
Filename C:\EAC\15 - I'm A Young Man.wav
Pre-gap length 0:00:02.51
Peak level 100.0 %
Extraction speed 2.2 X
Track quality 100.0 %
Test CRC ABA03957
Copy CRC ABA03957
Accurately ripped (confidence 1) [EF57C3F1] (AR v1)
Copy OK
Track 16
Filename C:\EAC\16 - How High.wav
Pre-gap length 0:00:02.51
Peak level 98.8 %
Extraction speed 2.2 X
Track quality 100.0 %
Test CRC 25587398
Copy CRC 25587398
Accurately ripped (confidence 1) [F961A174] (AR v1)
Copy OK
Track 17
Filename C:\EAC\17 - Let Me Be What I Am.wav
Pre-gap length 0:00:02.51
Peak level 99.7 %
Extraction speed 2.2 X
Track quality 100.0 %
Test CRC 736981F7
Copy CRC 736981F7
Accurately ripped (confidence 1) [634D4082] (AR v1)
Copy OK
Track 18
Filename C:\EAC\18 - You Know It's True.wav
Pre-gap length 0:00:02.51
Peak level 89.1 %
Extraction speed 2.4 X
Track quality 100.0 %
Test CRC 939A0D88
Copy CRC 939A0D88
Accurately ripped (confidence 1) [EAC12A5D] (AR v1)
Copy OK
All tracks accurately ripped
No errors occurred
End of status report
==== Log checksum 6D29C0EB9C1CB49D83C45163EE1D392A99C0490BEB97EF69ED66AC454E9DDD93 ====
 
Содержание индексной карты (.CUE)
REM COMMENT "CUETools generated dummy CUE sheet"
PERFORMER "Sir Joe Quarterman & Free Soul"
TITLE "Sir Joe Quarterman & Free Soul"
REM DATE 1973
REM GENRE "Funk"
FILE "01 - (I Got) So Much Trouble In My Mind.flac" WAVE
TRACK 01 AUDIO
PERFORMER "Sir Joe Quarterman & Free Soul"
TITLE "(I Got) So Much Trouble In My Mind"
INDEX 01 00:00:00
TRACK 02 AUDIO
PERFORMER "Sir Joe Quarterman & Free Soul"
TITLE "I Made A Promise"
INDEX 00 06:17:23
FILE "02 - I Made A Promise.flac" WAVE
INDEX 01 00:00:00
TRACK 03 AUDIO
PERFORMER "Sir Joe Quarterman & Free Soul"
TITLE "The Trouble With Trouble"
INDEX 00 04:12:00
FILE "03 - The Trouble With Trouble.flac" WAVE
INDEX 01 00:00:00
TRACK 04 AUDIO
PERFORMER "Sir Joe Quarterman & Free Soul"
TITLE "The Way They Do My Life"
INDEX 00 02:45:09
FILE "04 - The Way They Do My Life.flac" WAVE
INDEX 01 00:00:00
TRACK 05 AUDIO
PERFORMER "Sir Joe Quarterman & Free Soul"
TITLE "Find Yourself"
INDEX 00 03:00:04
FILE "05 - Find Yourself.flac" WAVE
INDEX 01 00:00:00
TRACK 06 AUDIO
PERFORMER "Sir Joe Quarterman & Free Soul"
TITLE "Gonna Get Me A Friend"
INDEX 00 02:56:21
FILE "06 - Gonna Get Me A Friend.flac" WAVE
INDEX 01 00:00:00
TRACK 07 AUDIO
PERFORMER "Sir Joe Quarterman & Free Soul"
TITLE "Give Me Back My Freedom"
INDEX 00 02:02:10
FILE "07 - Give Me Back My Freedom.flac" WAVE
INDEX 01 00:00:00
TRACK 08 AUDIO
PERFORMER "Sir Joe Quarterman & Free Soul"
TITLE "I Feel Like This"
INDEX 00 03:29:59
FILE "08 - I Feel Like This.flac" WAVE
INDEX 01 00:00:00
TRACK 09 AUDIO
PERFORMER "Sir Joe Quarterman & Free Soul"
TITLE "Live Now Brothers"
INDEX 00 02:53:63
FILE "09 - Live Now Brothers.flac" WAVE
INDEX 01 00:00:00
TRACK 10 AUDIO
PERFORMER "Sir Joe Quarterman & Free Soul"
TITLE "Thanks Dad (Part 1 & 2)"
INDEX 00 02:59:27
FILE "10 - Thanks Dad (Part 1 & 2).flac" WAVE
INDEX 01 00:00:00
TRACK 11 AUDIO
PERFORMER "Sir Joe Quarterman & Free Soul"
TITLE "I'm Gonna Get You"
INDEX 00 07:58:66
FILE "11 - I'm Gonna Get You.flac" WAVE
INDEX 01 00:00:00
TRACK 12 AUDIO
PERFORMER "Sir Joe Quarterman & Free Soul"
TITLE "This Girl Of Mine (She's Good To Me)"
INDEX 00 02:52:30
FILE "12 - This Girl Of Mine (She's Good To Me).flac" WAVE
INDEX 01 00:00:00
TRACK 13 AUDIO
PERFORMER "Sir Joe Quarterman & Free Soul"
TITLE "No"
INDEX 00 02:56:10
FILE "13 - No.flac" WAVE
INDEX 01 00:00:00
TRACK 14 AUDIO
PERFORMER "Sir Joe Quarterman & Free Soul"
TITLE "Get Down Baby (Part 1 & 2)"
INDEX 00 04:03:20
FILE "14 - Get Down Baby (Part 1 & 2).flac" WAVE
INDEX 01 00:00:00
TRACK 15 AUDIO
PERFORMER "Sir Joe Quarterman & Free Soul"
TITLE "I'm A Young Man"
INDEX 00 04:41:24
FILE "15 - I'm A Young Man.flac" WAVE
INDEX 01 00:00:00
TRACK 16 AUDIO
PERFORMER "Sir Joe Quarterman & Free Soul"
TITLE "How High"
INDEX 00 04:12:63
FILE "16 - How High.flac" WAVE
INDEX 01 00:00:00
TRACK 17 AUDIO
PERFORMER "Sir Joe Quarterman & Free Soul"
TITLE "Let Me Be What I Am"
INDEX 00 03:50:52
FILE "17 - Let Me Be What I Am.flac" WAVE
INDEX 01 00:00:00
TRACK 18 AUDIO
PERFORMER "Sir Joe Quarterman & Free Soul"
TITLE "You Know It's True"
INDEX 00 03:00:35
FILE "18 - You Know It's True.flac" WAVE
INDEX 01 00:00:00
 
Лог проверки качества
AUDIOCHECKER v2.0 beta (build 457) - by Dester - opdester@freemail.hu
~~~~~~~~~~~~~~~~~~~~~~~~~~~~~~~~~~
-=== DO NOT EDIT THIS FILE! ===-
Path: ...\Sir Joe Quarterman & Free Soul (Funk) [1973] FLAC
01 -=- 01 - (I Got) So Much Trouble In My Mind.flac -=- CDDA (100%)
02 -=- 02 - I Made A Promise.flac -=- CDDA (100%)
03 -=- 03 - The Trouble With Trouble.flac -=- CDDA (100%)
04 -=- 04 - The Way They Do My Life.flac -=- CDDA (99%)
05 -=- 05 - Find Yourself.flac -=- CDDA (100%)
06 -=- 06 - Gonna Get Me A Friend.flac -=- CDDA (100%)
07 -=- 07 - Give Me Back My Freedom.flac -=- CDDA (100%)
08 -=- 08 - I Feel Like This.flac -=- CDDA (100%)
09 -=- 09 - Live Now Brothers.flac -=- CDDA (100%)
10 -=- 10 - Thanks Dad (Part 1 & 2).flac -=- CDDA (100%)
11 -=- 11 - I'm Gonna Get You.flac -=- CDDA (99%)
12 -=- 12 - This Girl Of Mine (She's Good To Me).flac -=- CDDA (100%)
13 -=- 13 - No.flac -=- CDDA (99%)
14 -=- 14 - Get Down Baby (Part 1 & 2).flac -=- CDDA (100%)
15 -=- 15 - I'm A Young Man.flac -=- CDDA (100%)
16 -=- 16 - How High.flac -=- CDDA (100%)
17 -=- 17 - Let Me Be What I Am.flac -=- CDDA (100%)
18 -=- 18 - You Know It's True.flac -=- CDDA (100%)
Summary 99.83% CDDA
62150292
 
Об исполнителе (группе)
Biography
Joe Quarterman was an unfairly overlooked funk and soul singer influenced by -- but not imitative of -- James Brown.
Honing his chops in church choirs and various vocal groups, Quarterman earned the nickname "Sir" in high school while singing with a group called the Knights;
he subsequently joined up with a female backing quartet as Sir Joe & the Maidens and cut a few records during the early '60s.
Quarterman went on to play trumpet in the El Corols (aka the Magnificent Seven), whose highest-profile gig came as Garnet Mimms' backing band. In 1970, after
playing jazz with the Orlando Smith Quintet, he formed a backing group called Free Soul, which featured lead guitarist George "Jackie" Lee, jazz-trained guitarist
Willie Parker, fretless bassist Gregory Hammonds, keyboardist Karissa Freeman, drummer Charles Steptoe, and horn player Leon Rogers.
Their first single, "(I Got) So Much Trouble in My Mind," was also their biggest, reaching the R&B Top 30 in early 1973.
Quarterman's only LP, Sir Joe Quarterman & Free Soul, was released later that year on the small GSF label, and showed Quarterman to be an avatar of the kind
of hard, socially conscious funk James Brown often recorded during the early '70s.
Further singles followed, including "This Girl of Mine (She's Good to Me)," "I'm Gonna Get You," and "Thanks Dad," before Quarterman moved to Mercury in 1974.
Unfortunately, the label issued only two singles, the fine "Get Down Baby" and "I'm a Young Man," before letting Quarterman go.
Financial problems broke up the band, and Quarterman quit the business to return to college and earn his degree in architecture.
Collectables reissued Quarterman's lone album on CD during the '90s, adding several non-LP singles as bonus tracks.
(by Steve Huey All Music Guide)
 
Об альбоме (сборнике)
Re-mastered and extended version of this great Classic Funk album from 1973. ‘I’ve Got So Much Trouble In My Mind’ is of course a well known classic but of an equal standard from the original album are ‘Trouble With Trouble’, ‘The Way They Do My Life’, ‘Find Yourself’ and ‘I Made A Promise’. Added here are the non album singles ‘Thanks Dad’ , ‘This Girl Of mine’ , ‘Get Down Baby’ , ‘Im A Young Man’ and the brilliant and often sampled ‘Im Gonna Get You’ plus 3 tracks that were unreleased at the time the best of which is ‘How High’. A Great album which now sounds incredibly fresh and punchy.
 
Состав
Joe Quarterman (trumpet, vocals),
George R. Lee (guitar),
Gregory C. Hammonds (bass),
Allen Stewart (drums),
Willie Parker, Jr. (guitar),
Karissa Freeman (keyboards),
Leon Rogers (saxophone)
Приватный:
Нет (DHT включён)
Размер:
432.96 Мб (453,988,296 байт) » файлов: 26
Участники:
0 раздают, 0 качают (0 участников всего)
Внешние участники:
3 раздают, 1 качают (4 участников всего) [ Обновить ]
Есть вопросы - пишите личное сообщение пользователю M0p94ok.
12:43
107
Нет комментариев. Ваш будет первым!