Поиск

(Disco, Soul, Funk, Electronic) [CD] Juicy - Spread The Love - 1987 (2012 Remastered, Expanded Edition), FLAC (tracks+.cue), lossless

(Disco, Soul, Funk, Electronic) [CD] Juicy - Spread The Love - 1987 (2012 Remastered, Expanded Edition), FLAC (tracks+.cue), lossless
Треклист:
Juicy / Spread The Love
Жанр: Disco, Soul, Funk, Electronic
Носитель: CD
Страна-производитель диска (релиза): USA
Год издания: 1987
Издатель (лейбл): Funky Town Grooves , Columbia, Sony Music
Номер по каталогу: FTG 307, 88725407362
Аудиокодек: FLAC (*.flac)
Тип рипа: tracks+.cue
Битрейт аудио: lossless
Продолжительность: 01:00:54
Источник (релизер): DP
Наличие сканов в содержимом раздачи:
Треклист:
01. All Work, No Play 5:37
02. Show And Tell 4:35
03. After Loving You 5:10
04. Make You Mine 5:09
05. Midnight Fantasy 5:08
06. Serious 5:02
07. Spread The Love 5:32
08. Private Party 4:44
Bonus Track
09. All Work, No Play (The All Work Mix) 7:27
10. All Work, No Play (The All Play Mix) 6:51
11. All Work, No Play (Going Left) 5:27
 
Лог создания рипа
Exact Audio Copy V1.0 beta 3 from 29. August 2011
EAC extraction logfile from 22. October 2013, 18:14
Juicy / Spread The Love + Bonus Tracks
Used drive : ASUS DRW-24B3ST Adapter: 2 ID: 0
Read mode : Secure
Utilize accurate stream : Yes
Defeat audio cache : Yes
Make use of C2 pointers : No
Read offset correction : 6
Overread into Lead-In and Lead-Out : No
Fill up missing offset samples with silence : Yes
Delete leading and trailing silent blocks : No
Null samples used in CRC calculations : Yes
Used interface : Native Win32 interface for Win NT & 2000
Gap handling : Appended to previous track
Used output format : User Defined Encoder
Selected bitrate : 1024 kBit/s
Quality : High
Add ID3 tag : No
Command line compressor : C:\Program Files (x86)\Exact Audio Copy\Flac\flac.exe
Additional command line options : -8 -V -T "ARTIST=%artist%" -T "TITLE=%title%" -T "ALBUM=%albumtitle%" -T "DATE=%year%" -T "TRACKNUMBER=%tracknr%" -T "GENRE=%genre%" -T "PERFORMER=%albuminterpret%" -T "COMPOSER=%composer%" %haslyrics%--tag-from-file=LYRICS="%lyricsfile%"%haslyrics% -T "ALBUMARTIST=%albumartist%" -T "DISCNUMBER=%cdnumber%" -T "TOTALDISCS=%totalcds%" -T "TOTALTRACKS=%numtracks%" -T "COMMENT=%comment%" %source% -o %dest%
TOC of the extracted CD
Track | Start | Length | Start sector | End sector
---------------------------------------------------------
1 | 0:00.14 | 5:36.46 | 14 | 25259
2 | 5:36.60 | 4:37.13 | 25260 | 46047
3 | 10:13.73 | 5:10.12 | 46048 | 69309
4 | 15:24.10 | 5:05.58 | 69310 | 92242
5 | 20:29.68 | 5:06.59 | 92243 | 115251
6 | 25:36.52 | 5:03.21 | 115252 | 137997
7 | 30:39.73 | 5:33.51 | 137998 | 163023
8 | 36:13.49 | 4:45.72 | 163024 | 184470
9 | 40:59.46 | 7:30.65 | 184471 | 218285
10 | 48:30.36 | 6:53.00 | 218286 | 249260
11 | 55:23.36 | 5:30.47 | 249261 | 274057
Track 1
Filename H:\Disco\Juicy\Juicy - Spread The Love (Expanded Edition)\01 - All Work, No Play.wav
Pre-gap length 0:00:02.18
Peak level 99.8 %
Extraction speed 3.5 X
Track quality 99.9 %
Test CRC 49154CF6
Copy CRC 49154CF6
Accurately ripped (confidence 1) [7F0CD1E7] (AR v2)
Copy OK
Track 2
Filename H:\Disco\Juicy\Juicy - Spread The Love (Expanded Edition)\02 - Show And Tell.wav
Pre-gap length 0:00:00.66
Peak level 100.0 %
Extraction speed 4.5 X
Track quality 100.0 %
Test CRC 24BC5809
Copy CRC 24BC5809
Accurately ripped (confidence 1) [0965D8E1] (AR v2)
Copy OK
Track 3
Filename H:\Disco\Juicy\Juicy - Spread The Love (Expanded Edition)\03 - After Loving You.wav
Pre-gap length 0:00:02.50
Peak level 100.0 %
Extraction speed 4.9 X
Track quality 100.0 %
Test CRC 4AFF694E
Copy CRC 4AFF694E
Accurately ripped (confidence 1) [A0CC9821] (AR v2)
Copy OK
Track 4
Filename H:\Disco\Juicy\Juicy - Spread The Love (Expanded Edition)\04 - Make You Mine.wav
Peak level 100.0 %
Extraction speed 4.5 X
Track quality 99.9 %
Test CRC 424B4C4C
Copy CRC 424B4C4C
Accurately ripped (confidence 1) [8C0BCBBD] (AR v2)
Copy OK
Track 5
Filename H:\Disco\Juicy\Juicy - Spread The Love (Expanded Edition)\05 - Midnight Fantasy.wav
Peak level 100.0 %
Extraction speed 5.6 X
Track quality 100.0 %
Test CRC D1AF91BF
Copy CRC D1AF91BF
Accurately ripped (confidence 1) [4218CE92] (AR v2)
Copy OK
Track 6
Filename H:\Disco\Juicy\Juicy - Spread The Love (Expanded Edition)\06 - Serious.wav
Pre-gap length 0:00:00.92
Peak level 100.0 %
Extraction speed 6.0 X
Track quality 100.0 %
Test CRC 75EFF425
Copy CRC 75EFF425
Accurately ripped (confidence 1) [79DE8B98] (AR v2)
Copy OK
Track 7
Filename H:\Disco\Juicy\Juicy - Spread The Love (Expanded Edition)\07 - Spread The Love.wav
Pre-gap length 0:00:02.17
Peak level 99.4 %
Extraction speed 6.4 X
Track quality 100.0 %
Test CRC BF66AEB5
Copy CRC BF66AEB5
Accurately ripped (confidence 1) [9BC58C46] (AR v2)
Copy OK
Track 8
Filename H:\Disco\Juicy\Juicy - Spread The Love (Expanded Edition)\08 - Private Party.wav
Pre-gap length 0:00:01.16
Peak level 100.0 %
Extraction speed 6.5 X
Track quality 100.0 %
Test CRC 9206CD50
Copy CRC 9206CD50
Accurately ripped (confidence 1) [3B18824B] (AR v2)
Copy OK
Track 9
Filename H:\Disco\Juicy\Juicy - Spread The Love (Expanded Edition)\09 - All Work, No Play [The All Work Mix].wav
Pre-gap length 0:00:00.10
Peak level 100.0 %
Extraction speed 6.3 X
Track quality 99.9 %
Test CRC B903BAC7
Copy CRC B903BAC7
Accurately ripped (confidence 1) [3760B015] (AR v2)
Copy OK
Track 10
Filename H:\Disco\Juicy\Juicy - Spread The Love (Expanded Edition)\10 - All Work, No Play [The All Play Mix].wav
Pre-gap length 0:00:01.37
Peak level 100.0 %
Extraction speed 6.6 X
Track quality 99.9 %
Test CRC C924689D
Copy CRC C924689D
Accurately ripped (confidence 1) [6B77A76A] (AR v2)
Copy OK
Track 11
Filename H:\Disco\Juicy\Juicy - Spread The Love (Expanded Edition)\11 - All Work, No Play [Going Left].wav
Peak level 99.3 %
Extraction speed 7.7 X
Track quality 100.0 %
Test CRC F25D833C
Copy CRC F25D833C
Accurately ripped (confidence 1) [F901C9BD] (AR v2)
Copy OK
All tracks accurately ripped
No errors occurred
End of status report
==== Log checksum FCF598F2762FB90C2520C2792AE5E613151FF2E1E23DFC459EFF93973547AA90 ====
 
Содержание индексной карты (.CUE)
REM GENRE Soul
REM DATE 1987
REM DISCID 8A0E460B
REM COMMENT "ExactAudioCopy v1.0b3"
PERFORMER "Juicy"
TITLE "Spread The Love + Bonus Tracks"
FILE "01 - All Work, No Play.wav" WAVE
TRACK 01 AUDIO
TITLE "All Work, No Play"
PERFORMER "Juicy"
ISRC USSM18700717
PREGAP 00:00:14
INDEX 01 00:00:00
TRACK 02 AUDIO
TITLE "Show And Tell"
PERFORMER "Juicy"
ISRC USSM18700718
INDEX 00 05:35:71
FILE "02 - Show And Tell.wav" WAVE
INDEX 01 00:00:00
TRACK 03 AUDIO
TITLE "After Loving You"
PERFORMER "Juicy"
ISRC USSM18700719
INDEX 00 04:34:50
FILE "03 - After Loving You.wav" WAVE
INDEX 01 00:00:00
FILE "04 - Make You Mine.wav" WAVE
TRACK 04 AUDIO
TITLE "Make You Mine"
PERFORMER "Juicy"
ISRC USSM18700720
INDEX 01 00:00:00
FILE "05 - Midnight Fantasy.wav" WAVE
TRACK 05 AUDIO
TITLE "Midnight Fantasy"
PERFORMER "Juicy"
ISRC USSM18700721
INDEX 01 00:00:00
TRACK 06 AUDIO
TITLE "Serious"
PERFORMER "Juicy"
ISRC USSM18700722
INDEX 00 05:05:65
FILE "06 - Serious.wav" WAVE
INDEX 01 00:00:00
TRACK 07 AUDIO
TITLE "Spread The Love"
PERFORMER "Juicy"
ISRC USSM18700723
INDEX 00 05:01:08
FILE "07 - Spread The Love.wav" WAVE
INDEX 01 00:00:00
TRACK 08 AUDIO
TITLE "Private Party"
PERFORMER "Juicy"
ISRC USSM18700724
INDEX 00 05:32:39
FILE "08 - Private Party.wav" WAVE
INDEX 01 00:00:00
TRACK 09 AUDIO
TITLE "All Work, No Play [The All Work Mix]"
PERFORMER "Juicy"
ISRC USSM18700725
INDEX 00 04:45:64
FILE "09 - All Work, No Play [The All Work Mix].wav" WAVE
INDEX 01 00:00:00
TRACK 10 AUDIO
TITLE "All Work, No Play [The All Play Mix]"
PERFORMER "Juicy"
ISRC USSM18700726
INDEX 00 07:29:37
FILE "10 - All Work, No Play [The All Play Mix].wav" WAVE
INDEX 01 00:00:00
FILE "11 - All Work, No Play [Going Left].wav" WAVE
TRACK 11 AUDIO
TITLE "All Work, No Play [Going Left]"
PERFORMER "Juicy"
ISRC USSM18700727
INDEX 01 00:00:00
 
DR Log
foobar2000 1.1.10 / Dynamic Range Meter 1.1.1
log date: 2017-01-12 08:42:32
--------------------------------------------------------------------------------
Analyzed: Juicy / Spread The Love + Bonus Tracks
--------------------------------------------------------------------------------
DR Peak RMS Duration Track
--------------------------------------------------------------------------------
DR11 -0.01 dB -12.53 dB 5:37 ?-All Work, No Play
DR11 0.00 dB -12.22 dB 4:37 ?-Show And Tell
DR12 0.00 dB -13.65 dB 5:10 ?-After Loving You
DR12 0.00 dB -13.37 dB 5:06 ?-Make You Mine
DR11 0.00 dB -12.84 dB 5:07 ?-Midnight Fantasy
DR12 0.00 dB -13.72 dB 5:03 ?-Serious
DR11 -0.05 dB -13.08 dB 5:34 ?-Spread The Love
DR12 0.00 dB -13.82 dB 4:46 ?-Private Party
DR11 0.00 dB -13.38 dB 7:31 ?-All Work, No Play [The All Work Mix]
DR11 0.00 dB -13.00 dB 6:53 ?-All Work, No Play [The All Play Mix]
DR12 -0.06 dB -15.86 dB 5:31 ?-All Work, No Play [Going Left]
--------------------------------------------------------------------------------
Number of tracks: 11
Official DR value: DR11
Samplerate: 44100 Hz
Channels: 2
Bits per sample: 16
Bitrate: 901 kbps
Codec: FLAC
================================================================================
 
Об альбоме (сборнике)
Originally released on CBS Associated Records, 1987
https://en.wikipedia.org/wiki/Juicy_(band)
 
Состав
Arranged By, Performer – Juicy
Backing Vocals – Bob Ross (3), Cindy Mizelle (tracks: 5 to 7), Mark Stevens (tracks: 7)
Drum Programming – Fairlight Fairmont (tracks: 7, 8)
Guitar – Mike Scott (tracks: 3, 6)
Keyboards, Percussion – Bernard Wright (tracks: 2, 3, 7)
tracks: 6
Featuring [Guest Vocal] - Mark Stevens
tracks: 7
Featuring [Special Participation] – Chaka Khan
Приватный:
Нет (DHT включён)
Размер:
406.27 Мб (426,003,752 байт) » файлов: 18
Участники:
0 раздают, 0 качают (0 участников всего)
Внешние участники:
3 раздают, 1 качают (4 участников всего) [ Обновить ]
No seeders - write a personal message to user M0p94ok. Нет сидеров - пишите личное сообщение пользователю M0p94ok.
12:43
77
Нет комментариев. Ваш будет первым!