Поиск

1982 Donald Byrd & 125th Street, N.Y.C. - Words, Sounds, Colours & Shapes (2007) {Wounded Bird 6188} [CD]

1982 Donald Byrd & 125th Street, N.Y.C. - Words, Sounds, Colours & Shapes (2007) {Wounded Bird 6188} [CD]
Стили:
Треклист:
01. Sexy Dancer (5:12)
02. Midnight (5:08)
03. So Much In Love (4:00)
04. High Energy (5:48)
05. Star Trippin' (5:23)
06. I'm Coming Home (4:14)
07. Forbidden Love (5:25)
08. Everyday (5:05)
 
 
Лог создания рипа
Exact Audio Copy V1.0 beta 6 from 9. April 2015
EAC extraction logfile from 29. July 2015, 22:45
Donald Byrd And 125th Street, N.Y.C. / Words, Sounds, Colors And Shapes
Used drive  : Memorex 52MAXX 3252AJ1   Adapter: 1  ID: 1
Read mode               : Secure
Utilize accurate stream : Yes
Defeat audio cache      : Yes
Make use of C2 pointers : No
Read offset correction                      : 6
Overread into Lead-In and Lead-Out          : No
Fill up missing offset samples with silence : Yes
Delete leading and trailing silent blocks   : No
Null samples used in CRC calculations       : Yes
Used interface                              : Native Win32 interface for Win NT & 2000
Used output format              : User Defined Encoder
Selected bitrate                : 1024 kBit/s
Quality                         : High
Add ID3 tag                     : No
Command line compressor         : C:\Program Files (x86)\Exact Audio Copy\Flac\flac.exe
Additional command line options : %ishigh%-V -p -l 12 -b 4096 -m -e -r 8%ishigh%%islow%-5%islow% --replay-gain -T "ARTIST=%artist%" -T "ALBUM=%albumtitle%" -T "TITLE=%title%" -T "DATE=%year%" -T "TRACKNUMBER=%tracknr%" -T "GENRE=%genre%" -T "ENSEMBLE=%albuminterpret%" -T "ALBUMARTIST=%albumartist%" -T "COMPOSER=%albumcomposer%" -T "DISCNUMBER=%cdnumber%" -T "TOTALDISCS=%totalcds%" -T "TOTALTRACKS=%numtracks%" -T "SOURCEMEDIA=CD" -T "COMMENT=%comment%" %hascover%-T "PICTURE=%coverfile%"%hascover% %source%
TOC of the extracted CD
     Track |   Start  |  Length  | Start sector | End sector
    ---------------------------------------------------------
        1  |  0:00.00 |  5:11.41 |         0    |    23365
        2  |  5:11.41 |  5:07.46 |     23366    |    46436
        3  | 10:19.12 |  4:00.35 |     46437    |    64471
        4  | 14:19.47 |  5:47.64 |     64472    |    90560
        5  | 20:07.36 |  5:23.06 |     90561    |   114791
        6  | 25:30.42 |  4:14.09 |    114792    |   133850
        7  | 29:44.51 |  5:24.43 |    133851    |   158193
        8  | 35:09.19 |  5:04.43 |    158194    |   181036
Range status and errors
Selected range
     Filename C:\Users\M@ce\Music\Archives\Rips\Donald Byrd And 125th Street, N.Y.C. - Words, Sounds, Colors And Shapes.wav
     Peak level 96.5 %
     Extraction speed 8.7 X
     Range quality 100.0 %
     Test CRC DF605988
     Copy CRC DF605988
     Copy OK
No errors occurred
AccurateRip summary
Track  1  cannot be verified as accurate (confidence 2)  [2E873383], AccurateRip returned [B2CB1AB0]  (AR v2)
Track  2  cannot be verified as accurate (confidence 2)  [793FE7E7], AccurateRip returned [9CC9C006]  (AR v2)
Track  3  cannot be verified as accurate (confidence 2)  [465C98B5], AccurateRip returned [0615E456]  (AR v2)
Track  4  cannot be verified as accurate (confidence 2)  [D1BD0E0A], AccurateRip returned [DC557A7F]  (AR v2)
Track  5  cannot be verified as accurate (confidence 2)  [36719EB7], AccurateRip returned [58036923]  (AR v2)
Track  6  cannot be verified as accurate (confidence 2)  [BBADE763], AccurateRip returned [5F0F760D]  (AR v2)
Track  7  cannot be verified as accurate (confidence 2)  [076FAAD2], AccurateRip returned [E205A47D]  (AR v2)
Track  8  cannot be verified as accurate (confidence 2)  [D60E7CEF], AccurateRip returned [1E516096]  (AR v2)
No tracks could be verified as accurate
You may have a different pressing from the one(s) in the database
End of status report
---- CUETools DB Plugin V2.1.6
[CTDB TOCID: UGImrt.bp1lg6NwWEQLGk1cY1ZI-] found
Submit result: UGImrt.bp1lg6NwWEQLGk1cY1ZI- has been confirmed
Track | CTDB Status
  1   | (1/1) Accurately ripped
  2   | (1/1) Accurately ripped
  3   | (1/1) Accurately ripped
  4   | (1/1) Accurately ripped
  5   | (1/1) Accurately ripped
  6   | (1/1) Accurately ripped
  7   | (1/1) Accurately ripped
  8   | (1/1) Accurately ripped
==== Log checksum E883CDCCD8C575E6E89AA9771EEA7767AD63D6BA59394E67D9F60DFAB2109507 ====
 
Содержание индексной карты (.CUE)
REM GENRE Jazz
REM DATE 1982
REM DISCID 53096D08
REM COMMENT "ExactAudioCopy v1.0b6"
PERFORMER "Donald Byrd And 125th Street, N.Y.C."
TITLE "Words, Sounds, Colors And Shapes"
FILE "Words, Sounds, Colors And Shapes.flac" WAVE
  TRACK 01 AUDIO
    TITLE "Sexy Dancer"
    PERFORMER "Donald Byrd And 125th Street, N.Y.C."
    INDEX 01 00:00:00
  TRACK 02 AUDIO
    TITLE "Midnight"
    PERFORMER "Donald Byrd And 125th Street, N.Y.C."
    INDEX 01 05:11:41
  TRACK 03 AUDIO
    TITLE "So Much In Love"
    PERFORMER "Donald Byrd And 125th Street, N.Y.C."
    INDEX 01 10:19:12
  TRACK 04 AUDIO
    TITLE "High Energy"
    PERFORMER "Donald Byrd And 125th Street, N.Y.C."
    INDEX 01 14:19:47
  TRACK 05 AUDIO
    TITLE "Star Trippin'"
    PERFORMER "Donald Byrd And 125th Street, N.Y.C."
    INDEX 01 20:07:36
  TRACK 06 AUDIO
    TITLE "I'm Coming Home"
    PERFORMER "Donald Byrd And 125th Street, N.Y.C."
    INDEX 01 25:30:42
  TRACK 07 AUDIO
    TITLE "Forbidden Love"
    PERFORMER "Donald Byrd And 125th Street, N.Y.C."
    INDEX 01 29:44:51
  TRACK 08 AUDIO
    TITLE "Everyday"
    PERFORMER "Donald Byrd And 125th Street, N.Y.C."
    INDEX 01 35:09:19
Приватный:
Нет (DHT включён)
Размер:
278.91 Мб (292,454,684 байт) » файлов: 7
Участники:
0 раздают, 0 качают (0 участников всего)
Внешние участники:
5 раздают, 1 качают (6 участников всего) [ Обновить ]
No seeders - write a personal message to user M0p94ok. Нет сидеров - пишите личное сообщение пользователю M0p94ok.
12:45
125
Нет комментариев. Ваш будет первым!